\m/ 80's metal \m/

Информационно-аналитический форум "80 см пыли" (In Search We Trust) "У нас никто никуда не спешит"
Железнодорожная биржа - RailAgent
It is currently 16 Dec 2017

All times are UTC + 3 hours

Spoiler
Chat - temporary registration for foreign users (please leave your application here)







Post new topic Reply to topic  [ 17 posts ] 
Author Message
 
PostPosted: 12 Feb 2017 
А может смените мне статус?..
User avatar
Joined: 02 Sep 2007
Posts: 501
Lоcаtion: г.Москва, Юго-Запад
Age: 48
Name: Сергей
Nocturn - Estranged Dimensions 1991

Image

Genre: Thrash/Death Metal
Label: Dark Symphonies
Catalog: Dark54 CD

1. Estranged Dimensions 07:12
2. Delirium Tremens 07:28
3. Altered Evolution 08:07
4. Shades of Insanity 05:24
5. Century of Execration 08:08
6. Sacred Infamies 06:30
7. Graveyard Without Crosses 04:43
8. Morbid Shining 05:19
9. Inheritance of the... 06:10
10. Traveling Beyond 05:35
11. Shades of Insanity
12. Travelling Beyond

Уж конечно не "шедевральный", а для многих и "однообразный" альбом голландских "пограничников" (не ясно то ли трэш то ли дэт). Нужен именно ремастер от DS... потому как "родной" глух и откровенно похож на кашу ...
P.S. Судя по Hexx и Epidemic - Dark Symphonies умеют ремастировать ... Хотелось бы эту команду послушать в очищенном варианте.
Ребята, если у кого есть, не держите в себе :benya:


Last edited by bloodfeast on 27 Mar 2017, edited 1 time in total.

Top
 Profile  
 
 
PostPosted: 16 Feb 2017 
Трешер
User avatar
Joined: 25 Feb 2011
Posts: 1034
Lоcаtion: Харьков
Age: 41
Name: Aleksandr
Вокал Carcass 1991 Напомнил , это больше Death чем Thrash.


Top
 Profile E-mail  
 
 
PostPosted: 16 Feb 2017 
А может смените мне статус?..
User avatar
Joined: 02 Sep 2007
Posts: 501
Lоcаtion: г.Москва, Юго-Запад
Age: 48
Name: Сергей
Лет 5-7 назад альбом безусловно проходил бы по дэту ... Однако, нынче, особенно на западных форумах, придумывают все новые и новые термины. Raw Thrash Metal например ...
Epidemic - Decameron 1992 также крайне сложен в определении стилистических рамок .... Да может и не нужно определять - а надо просто рубиться :smile:


Top
 Profile  
 
 
PostPosted: 17 Feb 2017 
Генеральный thrasher
User avatar
Joined: 03 Oct 2008
Posts: 3255
Lоcаtion: Ханты-Мансийский АО
Age: 42
Name: Сергей
Не успел купить диск,когда последний раз брал релизы от Dark Symphonies.


Top
 Profile  
 
 
PostPosted: 18 Feb 2017 
Трешер
User avatar
Joined: 25 Feb 2011
Posts: 1034
Lоcаtion: Харьков
Age: 41
Name: Aleksandr
Нормальный дезметал такой .


Top
 Profile E-mail  
 
 
PostPosted: 11 Mar 2017 
Генеральный thrasher
User avatar
Joined: 03 Oct 2008
Posts: 3255
Lоcаtion: Ханты-Мансийский АО
Age: 42
Name: Сергей
Нужен именно ремастер от DS... Ребята, если у кого есть, не держите в себе :benya:


Куплен,на следующей неделе отправят.


Top
 Profile  
 
 
PostPosted: 11 Mar 2017 
А может смените мне статус?..
User avatar
Joined: 02 Sep 2007
Posts: 501
Lоcаtion: г.Москва, Юго-Запад
Age: 48
Name: Сергей
thorbeorn wrote:
Куплен,на следующей неделе отправят.


Вот это по-настоящему круто :true: Ожидаем ....


Top
 Profile  
 
 
PostPosted: 11 Mar 2017 
Генеральный thrasher
User avatar
Joined: 03 Oct 2008
Posts: 3255
Lоcаtion: Ханты-Мансийский АО
Age: 42
Name: Сергей
Серёга,как придёт сразу оформлю сохатого.


Top
 Profile  
 
 
PostPosted: 11 Mar 2017 
Хиппей (support team)
User avatar
Joined: 30 Jul 2007
Posts: 97141
Lоcаtion: Киев (Kyiv, UA)
Age: 44
Name: Andrey
О... :dance:

_________________


Top
 Profile E-mail  
 
 
PostPosted: 27 Mar 2017 
Генеральный thrasher
User avatar
Joined: 03 Oct 2008
Posts: 3255
Lоcаtion: Ханты-Мансийский АО
Age: 42
Name: Сергей
Вот и лось для Серёги.И косячок в работе Dark Symphonies.Обещанных двух бонусов с сингла Shades Of Insanity нет.Видать потерялись где-то... :vic:

Image

"Cue"
REM GENRE "Thrash / Death Metal"
REM DATE 1991
REM DISCID 970F2C0A
REM COMMENT "ExactAudioCopy v1.1"
PERFORMER "Nocturn"
TITLE "Estranged Dimensions"
FILE "Nocturn - Estranged Dimensions.flac" WAVE
TRACK 01 AUDIO
TITLE "Estranged Dimensions"
PERFORMER "Nocturn"
INDEX 01 00:00:00
TRACK 02 AUDIO
TITLE "Delirium Tremens"
PERFORMER "Nocturn"
INDEX 01 07:03:25
TRACK 03 AUDIO
TITLE "Altered Evolution"
PERFORMER "Nocturn"
INDEX 01 14:23:02
TRACK 04 AUDIO
TITLE "Shades Of Insanity"
PERFORMER "Nocturn"
INDEX 01 22:37:22
TRACK 05 AUDIO
TITLE "Century Of Execration"
PERFORMER "Nocturn"
INDEX 01 28:07:15
TRACK 06 AUDIO
TITLE "Sacred Infames"
PERFORMER "Nocturn"
INDEX 01 36:21:52
TRACK 07 AUDIO
TITLE "Graveyard Without Crosses"
PERFORMER "Nocturn"
INDEX 01 42:43:60
TRACK 08 AUDIO
TITLE "Morbid Shining"
PERFORMER "Nocturn"
INDEX 01 47:33:60
TRACK 09 AUDIO
TITLE "Inheritance Of The..."
PERFORMER "Nocturn"
INDEX 01 52:58:55
TRACK 10 AUDIO
TITLE "Traveling Beyond"
PERFORMER "Nocturn"
INDEX 01 59:08:65

"Log"
Exact Audio Copy V1.1 from 23. June 2015

Отчёт EAC об извлечении, выполненном 27. марта 2017, 9:50

Nocturn / Estranged Dimensions

Дисковод: HL-DT-STDVDRAM GTA0N Adapter: 1 ID: 0

Режим чтения : Достоверность
Использование точного потока : Да
Отключение кэша аудио : Да
Использование указателей C2 : Нет

Коррекция смещения при чтении : 102
Способность читать области Lead-in и Lead-out : Нет
Заполнение пропущенных сэмплов тишиной : Да
Удаление блоков с тишиной в начале и конце : Нет
При вычислениях CRC использовались нулевые сэмплы : Да
Интерфейс : Встроенный Win32-интерфейс для Win NT/2000

Выходной формат : Пользовательский кодировщик
Выбранный битрейт : 768 kBit/s
Качество : Высокий
Добавление ID3-тега : Нет
Утилита сжатия : C:\Program Files (x86)\Exact Audio Copy\FLAC\FLAC.EXE
Дополнительные параметры : -V -8 -T "Date=%year%" -T "Genre=%genre%" %source%


TOC извлечённого CD

Трек | Старт | Длительность | Начальный сектор | Конечный сектор
---------------------------------------------------------------------
1 | 0:00.00 | 7:03.25 | 0 | 31749
2 | 7:03.25 | 7:19.52 | 31750 | 64726
3 | 14:23.02 | 8:14.20 | 64727 | 101796
4 | 22:37.22 | 5:29.68 | 101797 | 126539
5 | 28:07.15 | 8:14.37 | 126540 | 163626
6 | 36:21.52 | 6:22.08 | 163627 | 192284
7 | 42:43.60 | 4:50.00 | 192285 | 214034
8 | 47:33.60 | 5:24.70 | 214035 | 238404
9 | 52:58.55 | 6:10.10 | 238405 | 266164
10 | 59:08.65 | 5:35.14 | 266165 | 291303


Характеристики диапазона извлечения и сообщения об ошибках

Выбранный диапазон

Имя файла C:\Users\магазин\Music\Nocturn - Estranged Dimensions.wav

Пиковый уровень 100.0 %
Скорость извлечения 4.3 X
Качество диапазона 99.9 %
CRC теста 2CBFED8B
CRC копии 2CBFED8B
Копирование... OK

Ошибок не произошло


AccurateRip: сводка

Трек 1 отсутствует в базе данных
Трек 2 отсутствует в базе данных
Трек 3 отсутствует в базе данных
Трек 4 отсутствует в базе данных
Трек 5 отсутствует в базе данных
Трек 6 отсутствует в базе данных
Трек 7 отсутствует в базе данных
Трек 8 отсутствует в базе данных
Трек 9 отсутствует в базе данных
Трек 10 отсутствует в базе данных

Ни одного трека нет в базе AccurateRip

Конец отчёта

---- CUETools DB Plugin V2.1.6

[CTDB TOCID: GM6SRZqZPvBALGGkSlmVzp1fZNc-] found
Submit result: GM6SRZqZPvBALGGkSlmVzp1fZNc- has been confirmed
Track | CTDB Status
1 | (3/3) Accurately ripped
2 | (3/3) Accurately ripped
3 | (3/3) Accurately ripped
4 | (3/3) Accurately ripped
5 | (3/3) Accurately ripped
6 | (3/3) Accurately ripped
7 | (3/3) Accurately ripped
8 | (3/3) Accurately ripped
9 | (3/3) Accurately ripped
10 | (3/3) Accurately ripped


Estranged Dimensions


Top
 Profile  
 
 
PostPosted: 27 Mar 2017 
А может смените мне статус?..
User avatar
Joined: 02 Sep 2007
Posts: 501
Lоcаtion: г.Москва, Юго-Запад
Age: 48
Name: Сергей
Dark Symphonies хочется пожелать творческого долголетия. Для меня каждый их релиз представляет интерес ... Лейбл просто чумовой.

P.S. По творческой составляющей пласта ничего писать не буду (в рексе все написано). Огромное Спасибо! :thanx:


Top
 Profile  
 
 
PostPosted: 27 Mar 2017 
Хиппей (support team)
User avatar
Joined: 30 Jul 2007
Posts: 97141
Lоcаtion: Киев (Kyiv, UA)
Age: 44
Name: Andrey
thorbeorn wrote:
Estranged Dimensions

:thanx:

mirror: Depos l Narod l M-Cloud

_________________


Top
 Profile E-mail  
 
 
PostPosted: 27 Mar 2017 
Генеральный thrasher
User avatar
Joined: 03 Oct 2008
Posts: 3255
Lоcаtion: Ханты-Мансийский АО
Age: 42
Name: Сергей
Для меня каждый их релиз представляет интерес ... Лейбл просто чумовой.


В анонсах у них столько всего!Только успевай копилки громить! :shok:


Top
 Profile  
 
 
PostPosted: 27 Mar 2017 
А может смените мне статус?..
User avatar
Joined: 02 Sep 2007
Posts: 501
Lоcаtion: г.Москва, Юго-Запад
Age: 48
Name: Сергей
thorbeorn wrote:
В анонсах у них столько всего!


У них и среди того, что вышло глаза разбегаются ... Единственно, что хотелось бы отметить - направление на дэт-рубилово более чем очевидно ... В принципе даже такие команды как Sacrificial не каждый любитель трэша будет слушать (с удовольствием, я имею в виду) ... А про Morpheus, Epidemic, Epitaph или Accessory я лучше промолчу :benya:


Top
 Profile  
 
 
PostPosted: 27 Mar 2017 
Генеральный thrasher
User avatar
Joined: 03 Oct 2008
Posts: 3255
Lоcаtion: Ханты-Мансийский АО
Age: 42
Name: Сергей
Я жду Mandator - Initial Velocity и Disabuse - Sorrow and Perdition.


Top
 Profile  
 
 
PostPosted: 27 Mar 2017 
А может смените мне статус?..
User avatar
Joined: 02 Sep 2007
Posts: 501
Lоcаtion: г.Москва, Юго-Запад
Age: 48
Name: Сергей
thorbeorn wrote:
Я жду Mandator - Initial Velocity и Disabuse - Sorrow and Perdition.


Mandator крайне интересен ... именно ремастерингом. Disabuse я слышал в таком качестве, что лучше и не слышать :benya: Вообще голландцами они капитально занялись - прикольно ...


Top
 Profile  
 
 
PostPosted: 06 Apr 2017 
Хиппей (support team)
User avatar
Joined: 30 Jul 2007
Posts: 97141
Lоcаtion: Киев (Kyiv, UA)
Age: 44
Name: Andrey
Мрачноватый трэш-дэз. Ничего такого эдакого, но несмелые скоростные момменты в музыке гурппы радовают :lob: :lob: :lob:
Жаль, скорости то то как раз и мало :(

5/10

_________________


Top
 Profile E-mail  
 
Display posts from previous:  Sort by  
Post new topic Reply to topic  [ 17 posts ] 

All times are UTC + 3 hours


Who is online

Users browsing this forum: No registered users and 1 guest


You cannot post new topics in this forum
You cannot reply to topics in this forum
You cannot edit your posts in this forum
You cannot delete your posts in this forum
You cannot post attachments in this forum

Search for:
Яндекс.Метрика
Powered by phpBB © 2000, 2002, 2005, 2007 phpBB Group