\m/ 80's metal \m/

Информационно-аналитический форум "80 см пыли" (In Search We Trust) "У нас никто никуда не спешит"
Железнодорожная биржа - RailAgent
It is currently 25 Feb 2018

All times are UTC + 3 hours

Spoiler
Chat - temporary registration for foreign users (please leave your application here)







Post new topic Reply to topic  [ 41 posts ]  Go to page 1, 2, 3  Next
Author Message
 
PostPosted: 22 Sep 2016 
Partisanen - nicht kapitulieren!!
User avatar
Joined: 25 Dec 2011
Posts: 6180
Lоcаtion: партизанские леса
Age: 45
Name: Владимир
Ninja [1988/2015] Invincible
Image

Издатель: Karthago Records
Номер по каталогу: KR098-HMC032
Продолжительность: 41:07
Формат аудио: FLAC (image), cue, log, covers
Размер: 314 mb
Источник: CD

Tracklist:
01 Invincible
02 Phoenix
03 Wet Dreams
04 Hard As Steel
05 Follow Me
06 Every Hour
07 Strangers
08 Rich Man
09 Hold On
10 Farewell

EAC log | +
Code:
Exact Audio Copy V1.1 from 23. June 2015
EAC extraction logfile from 14. September 2016, 23:45

Ninja / Invincible

Used drive : PIONEER BD-RW BDR-209D Adapter: 0 ID: 5

Read mode : Secure
Utilize accurate stream : Yes
Defeat audio cache : Yes
Make use of C2 pointers : No

Read offset correction : 667
Overread into Lead-In and Lead-Out : No
Fill up missing offset samples with silence : Yes
Delete leading and trailing silent blocks : No
Null samples used in CRC calculations : Yes
Used interface : Installed external ASPI interface

Used output format : User Defined Encoder
Selected bitrate : 768 kBit/s
Quality : High
Add ID3 tag : No
Command line compressor : C:\Program Files (x86)\Exact Audio Copy\FLAC\FLAC.EXE
Additional command line options : -6 -V -T "ARTIST=%artist%" -T "TITLE=%title%" -T "ALBUM=%albumtitle%" -T "DATE=%year%" -T "TRACKNUMBER=%tracknr%" -T "GENRE=%genre%" -T "COMMENT=%comment%" -T "BAND=%albuminterpret%" -T "ALBUMARTIST=%albuminterpret%" -T "COMPOSER=%composer%" %haslyrics%--tag-from-file=LYRICS="%lyricsfile%"%haslyrics% -T "DISCNUMBER=%cdnumber%" -T "TOTALDISCS=%totalcds%" -T "TOTALTRACKS=%numtracks%" %hascover%--picture="%coverfile%"%hascover% %source% -o %dest%
TOC of the extracted CD

Track | Start | Length | Start sector | End sector
---------------------------------------------------------
1 | 0:00.00 | 4:58.60 | 0 | 22409
2 | 4:58.60 | 3:50.04 | 22410 | 39663
3 | 8:48.64 | 3:32.00 | 39664 | 55563
4 | 12:20.64 | 4:01.37 | 55564 | 73675
5 | 16:22.26 | 5:37.08 | 73676 | 98958
6 | 21:59.34 | 3:55.36 | 98959 | 116619
7 | 25:54.70 | 5:22.27 | 116620 | 140796
8 | 31:17.22 | 3:59.46 | 140797 | 158767
9 | 35:16.68 | 3:34.20 | 158768 | 174837
10 | 38:51.13 | 2:16.36 | 174838 | 185073
Range status and errors

Selected range

Filename E:\MUSIC\Ninja - Invincible.wav

Peak level 100.0 %
Extraction speed 7.2 X
Range quality 100.0 %
Test CRC CEE85C61
Copy CRC CEE85C61
Copy OK

No errors occurred
AccurateRip summary

Track 1 not present in database
Track 2 not present in database
Track 3 not present in database
Track 4 not present in database
Track 5 not present in database
Track 6 not present in database
Track 7 not present in database
Track 8 not present in database
Track 9 not present in database
Track 10 not present in database

None of the tracks are present in the AccurateRip database

End of status report

==== Log checksum DEF2F9AC21AEAABE64AC8B2C49A42481F93DEBEFA792EF6D4DBF224247D816A6 ====


Image

_________________
One more beer and Heavy Metal and I'm just fine!
старовер, куле... слово "блин" - до сих пор через Ъ говорю


Last edited by Scatterbrain on 23 Sep 2016, edited 2 times in total.
Подправил всё же название темы под единый стнадарт


Top
 Profile E-mail  
 
 
PostPosted: 22 Sep 2016 
Partisanen - nicht kapitulieren!!
User avatar
Joined: 25 Dec 2011
Posts: 6180
Lоcаtion: партизанские леса
Age: 45
Name: Владимир
Ninja [1992/2015] Liberty
Image

Издатель: Karthago Records
Номер по каталогу: KR099-HMC033
Продолжительность: 45:36
Формат аудио: FLAC (image), cue, log, covers
Размер: 346 mb
Источник: CD

Tracklist:
01 Glory Seven
02 Ice In Your Hand
03 Time Time
04 Get It All Up
05 Killer No 9
06 Runner In The Night
07 Winds Of War
08 Scream Out
09 Snickers From Space
10 Liberty

EAC log | +
Code:
Exact Audio Copy V1.1 from 23. June 2015

EAC extraction logfile from 14. September 2016, 23:30

Ninja / Liberty

Used drive : PIONEER BD-RW BDR-209D Adapter: 0 ID: 5

Read mode : Secure
Utilize accurate stream : Yes
Defeat audio cache : Yes
Make use of C2 pointers : No

Read offset correction : 667
Overread into Lead-In and Lead-Out : No
Fill up missing offset samples with silence : Yes
Delete leading and trailing silent blocks : No
Null samples used in CRC calculations : Yes
Used interface : Installed external ASPI interface

Used output format : User Defined Encoder
Selected bitrate : 768 kBit/s
Quality : High
Add ID3 tag : No
Command line compressor : C:\Program Files (x86)\Exact Audio Copy\FLAC\FLAC.EXE
Additional command line options : -6 -V -T "ARTIST=%artist%" -T "TITLE=%title%" -T "ALBUM=%albumtitle%" -T "DATE=%year%" -T "TRACKNUMBER=%tracknr%" -T "GENRE=%genre%" -T "COMMENT=%comment%" -T "BAND=%albuminterpret%" -T "ALBUMARTIST=%albuminterpret%" -T "COMPOSER=%composer%" %haslyrics%--tag-from-file=LYRICS="%lyricsfile%"%haslyrics% -T "DISCNUMBER=%cdnumber%" -T "TOTALDISCS=%totalcds%" -T "TOTALTRACKS=%numtracks%" %hascover%--picture="%coverfile%"%hascover% %source% -o %dest%
TOC of the extracted CD

Track | Start | Length | Start sector | End sector
---------------------------------------------------------
1 | 0:00.00 | 4:08.39 | 0 | 18638
2 | 4:08.39 | 5:23.30 | 18639 | 42893
3 | 9:31.69 | 3:15.28 | 42894 | 57546
4 | 12:47.22 | 3:46.32 | 57547 | 74528
5 | 16:33.54 | 3:45.24 | 74529 | 91427
6 | 20:19.03 | 4:14.68 | 91428 | 110545
7 | 24:33.71 | 5:48.26 | 110546 | 136671
8 | 30:22.22 | 4:12.20 | 136672 | 155591
9 | 34:34.42 | 5:18.61 | 155592 | 179502
10 | 39:53.28 | 5:43.31 | 179503 | 205258
Range status and errors

Selected range

Filename E:\MUSIC\Ninja - Liberty.wav

Peak level 100.0 %
Extraction speed 7.4 X
Range quality 100.0 %
Test CRC 933C0BF5
Copy CRC 933C0BF5
Copy OK

No errors occurred
AccurateRip summary

Track 1 not present in database
Track 2 not present in database
Track 3 not present in database
Track 4 not present in database
Track 5 not present in database
Track 6 not present in database
Track 7 not present in database
Track 8 not present in database
Track 9 not present in database
Track 10 not present in database

None of the tracks are present in the AccurateRip database

End of status report

==== Log checksum 710F91FB39B6A9060942B26A0BC7D895A972036C06E648489E62FDF784721644 ====


Image

_________________
One more beer and Heavy Metal and I'm just fine!
старовер, куле... слово "блин" - до сих пор через Ъ говорю


Top
 Profile E-mail  
 
 
PostPosted: 22 Sep 2016 
Partisanen - nicht kapitulieren!!
User avatar
Joined: 25 Dec 2011
Posts: 6180
Lоcаtion: партизанские леса
Age: 45
Name: Владимир
Ninja [1997/2016] Valley Of Wolves
Image

Издатель: Karthago Records
Номер по каталогу: KR100-HMC034
Продолжительность: 40:24
Формат аудио: FLAC (image), cue, log, covers
Размер: 321 mb
Источник: CD

Tracklist:
01. Valley Of Wolves
02. King Of Waltz
03. Majesty
04. Dirty Job
05. Galaxy
06. The Amazing World of Franki K.
07. Heart of a Beggar
08. Herbert
09. Silver Dagger
10. Alright

EAC log | +
Code:
Exact Audio Copy V1.1 from 23. June 2015

EAC extraction logfile from 15. September 2016, 20:40

Ninja / Valley Of Wolves

Used drive : PIONEER BD-RW BDR-209D Adapter: 0 ID: 5

Read mode : Secure
Utilize accurate stream : Yes
Defeat audio cache : Yes
Make use of C2 pointers : No

Read offset correction : 667
Overread into Lead-In and Lead-Out : No
Fill up missing offset samples with silence : Yes
Delete leading and trailing silent blocks : No
Null samples used in CRC calculations : Yes
Used interface : Installed external ASPI interface

Used output format : User Defined Encoder
Selected bitrate : 768 kBit/s
Quality : High
Add ID3 tag : No
Command line compressor : C:\Program Files (x86)\Exact Audio Copy\FLAC\FLAC.EXE
Additional command line options : -6 -V -T "ARTIST=%artist%" -T "TITLE=%title%" -T "ALBUM=%albumtitle%" -T "DATE=%year%" -T "TRACKNUMBER=%tracknr%" -T "GENRE=%genre%" -T "COMMENT=%comment%" -T "BAND=%albuminterpret%" -T "ALBUMARTIST=%albuminterpret%" -T "COMPOSER=%composer%" %haslyrics%--tag-from-file=LYRICS="%lyricsfile%"%haslyrics% -T "DISCNUMBER=%cdnumber%" -T "TOTALDISCS=%totalcds%" -T "TOTALTRACKS=%numtracks%" %hascover%--picture="%coverfile%"%hascover% %source% -o %dest%
TOC of the extracted CD

Track | Start | Length | Start sector | End sector
---------------------------------------------------------
1 | 0:00.00 | 4:09.22 | 0 | 18696
2 | 4:09.22 | 3:05.68 | 18697 | 32639
3 | 7:15.15 | 4:54.10 | 32640 | 54699
4 | 12:09.25 | 3:02.01 | 54700 | 68350
5 | 15:11.26 | 5:19.65 | 68351 | 92340
6 | 20:31.16 | 3:23.71 | 92341 | 107636
7 | 23:55.12 | 4:00.74 | 107637 | 125710
8 | 27:56.11 | 3:43.65 | 125711 | 142500
9 | 31:40.01 | 4:14.48 | 142501 | 161598
10 | 35:54.49 | 4:30.09 | 161599 | 181857
Range status and errors

Selected range

Filename E:\MUSIC\Ninja - Valley Of Wolves.wav

Peak level 100.0 %
Extraction speed 7.2 X
Range quality 100.0 %
Test CRC 88F625C1
Copy CRC 88F625C1
Copy OK

No errors occurred
AccurateRip summary

Track 1 not present in database
Track 2 not present in database
Track 3 not present in database
Track 4 not present in database
Track 5 not present in database
Track 6 not present in database
Track 7 not present in database
Track 8 not present in database
Track 9 not present in database
Track 10 not present in database

None of the tracks are present in the AccurateRip database

End of status report

==== Log checksum 3557609DBC1EA628C75C3EED6BBFC5E41C809112600F327C1F739C2863FC2BB5 ====


Image

_________________
One more beer and Heavy Metal and I'm just fine!
старовер, куле... слово "блин" - до сих пор через Ъ говорю


Top
 Profile E-mail  
 
 
PostPosted: 22 Sep 2016 
Рарник и трушник
User avatar
Joined: 25 Dec 2009
Posts: 7377
Lоcаtion: Москва
Age: 52
Name: Виталий
Спасибо, Володь! :lob: :lob: :lob:


Last edited by Vitaly65 on 22 Sep 2016, edited 1 time in total.

Top
 Profile  
 
 
PostPosted: 22 Sep 2016 
Хиппей (support team)
User avatar
Joined: 30 Jul 2007
Posts: 100299
Lоcаtion: Киев (Kyiv, UA)
Age: 44
Name: Andrey
:thanx:

mirror:

1988 - iFolder l Narod l M-Cloud
1992 - iFolder l Narod l M-Cloud
1997 - iFolder l Narod l M-Cloud

_________________


Top
 Profile E-mail  
 
 
PostPosted: 22 Sep 2016 
Анатолий
User avatar
Joined: 18 Oct 2008
Posts: 2912
Lоcаtion: Армавир
Age: 40
Name: Анатолий
Ох, вот это даааааа!!! Спасибо!!! :thanx: :true:


Top
 Profile E-mail  
 
 
PostPosted: 22 Sep 2016 
Хиппей (support team)
User avatar
Joined: 30 Jul 2007
Posts: 100299
Lоcаtion: Киев (Kyiv, UA)
Age: 44
Name: Andrey
32warlord1 wrote:
Ninja [1988/2015] Invincible

Уррряяя, привед сибилянтам :crazy: :lob: :lob: :lob:

_________________


Top
 Profile E-mail  
 
 
PostPosted: 22 Sep 2016 
Хиппей (support team)
User avatar
Joined: 30 Jul 2007
Posts: 100299
Lоcаtion: Киев (Kyiv, UA)
Age: 44
Name: Andrey
В топку и эти издания, чую :kro:

_________________


Top
 Profile E-mail  
 
 
PostPosted: 22 Sep 2016 
Труъ
User avatar
Joined: 27 Feb 2009
Posts: 185
Lоcаtion: Питер
Age: 50
Name: Олег
Liberty вообще из мп3 нарезали , про Invincible Виталий уже написал в другой теме , единственное , что представляет ценность - Valley Of Wolves , его в нормальном качестве не было .


Top
 Profile  
 
 
PostPosted: 22 Sep 2016 
Рарник и трушник
User avatar
Joined: 25 Dec 2009
Posts: 7377
Lоcаtion: Москва
Age: 52
Name: Виталий
vit111 wrote:
единственное , что представляет ценность - Valley Of Wolves , его в нормальном качестве не было .

Олег, думаешь там не мп3? Уверен в этом. :pardon:
Scatterbrain wrote:
Уррряяя, привед сибилянтам

Нету. :vic:


Top
 Profile  
 
 
PostPosted: 22 Sep 2016 
спирт 100%
User avatar
Joined: 22 Sep 2008
Posts: 4159
Age: 46
Name: Саня
:true: :thanx:


Top
 Profile  
 
 
PostPosted: 22 Sep 2016 
Хиппей (support team)
User avatar
Joined: 30 Jul 2007
Posts: 100299
Lоcаtion: Киев (Kyiv, UA)
Age: 44
Name: Andrey
И всё же жыыырный альбом ничем не испортить :lob: :lob: :lob:
Дебютник забираю в топы :kro:

_________________


Top
 Profile E-mail  
 
 
PostPosted: 22 Sep 2016 
Хиппей (support team)
User avatar
Joined: 30 Jul 2007
Posts: 100299
Lоcаtion: Киев (Kyiv, UA)
Age: 44
Name: Andrey
Vitaly65 wrote:
Нету. :vic:

Да? Ну и хрендель с ними. Но звук шипилявит :pardon:

_________________


Top
 Profile E-mail  
 
 
PostPosted: 22 Sep 2016 
Труъ
User avatar
Joined: 27 Feb 2009
Posts: 185
Lоcаtion: Питер
Age: 50
Name: Олег
vit111 wrote:
единственное , что представляет ценность - Valley Of Wolves , его в нормальном качестве не было .

Олег, думаешь там не мп3? Уверен в этом. :pardon:
Scatterbrain wrote:
Уррряяя, привед сибилянтам

Нету. :vic:

Да не уверен конечно, с Либерти особо не заморачивались , с 97 наверное тоже, просто сделали из того что было . По крайней мере это звучит намного лучше того , что было в сети .


Top
 Profile  
 
 
PostPosted: 23 Sep 2016 
Рарник и трушник
User avatar
Joined: 25 Dec 2009
Posts: 7377
Lоcаtion: Москва
Age: 52
Name: Виталий
vit111 wrote:
По крайней мере это звучит намного лучше того , что было в сети .

У меня от дебютника осталось впечатление, что рулили эквалайзером, здесь похоже тоже, потому общая картинка кажется лучше, но микродинамика убита напрочь. :pardon:


Top
 Profile  
 
 
PostPosted: 23 Sep 2016 
Рарник и трушник
User avatar
Joined: 25 Dec 2009
Posts: 7377
Lоcаtion: Москва
Age: 52
Name: Виталий
Scatterbrain wrote:
Ну и хрендель с ними. Но звук шипилявит

Ну дык, забирай в топку лучше мой рип, он лучше, потому забирай лучше его, как лучший. :pardon:


Top
 Profile  
 
 
PostPosted: 23 Sep 2016 
Хиппей (support team)
User avatar
Joined: 30 Jul 2007
Posts: 100299
Lоcаtion: Киев (Kyiv, UA)
Age: 44
Name: Andrey
32warlord1 wrote:
Ninja [1992/2015] Liberty

Хороший и даже приятный альбом. Посыл к отсылу Ассерта периода 85 года, только намного мелодичнее. Но драйв остался :lob:
Можно было бы и потяжелее сыграть, но это ж уже не 80-е. Спасибо, что вообще записали и выпустили. И не полезли в грандж, например.

7/10

Качеством записи доволен. И тоже в топ альбом уходит :dance:

_________________


Top
 Profile E-mail  
 
 
PostPosted: 23 Sep 2016 
Хиппей (support team)
User avatar
Joined: 30 Jul 2007
Posts: 100299
Lоcаtion: Киев (Kyiv, UA)
Age: 44
Name: Andrey
32warlord1 wrote:
Ninja [1997/2016] Valley Of Wolves

6/10

Разннообразненько, но слишком уж. Хитово, но и модняво. В общем, современный альбом старенькой группы, не вызывающих уже особых ахов и ухов.
Но и слушается боле-менее приятно.
Звук хорош.


Так что у меня всё же возросло доверие к словам Хольгера, что для переиздания всех альбомов группы он давал лэйблу мастер-ленты, а не мп3 =)

_________________


Top
 Profile E-mail  
 
 
PostPosted: 23 Sep 2016 
Partisanen - nicht kapitulieren!!
User avatar
Joined: 25 Dec 2011
Posts: 6180
Lоcаtion: партизанские леса
Age: 45
Name: Владимир
мне, кстати, и последний (2015) нормално так зашёл... :scratch:

_________________
One more beer and Heavy Metal and I'm just fine!
старовер, куле... слово "блин" - до сих пор через Ъ говорю


Top
 Profile E-mail  
 
 
PostPosted: 24 Sep 2016 
Рарник и трушник
User avatar
Joined: 25 Dec 2009
Posts: 7377
Lоcаtion: Москва
Age: 52
Name: Виталий
vit111 wrote:
с Либерти особо не заморачивались

Просто для справки:
Звучок на Каторге везде мп-тришный.
Image


Top
 Profile  
 
Display posts from previous:  Sort by  
Post new topic Reply to topic  [ 41 posts ]  Go to page 1, 2, 3  Next

All times are UTC + 3 hours


Who is online

Users browsing this forum: No registered users and 2 guests


You cannot post new topics in this forum
You cannot reply to topics in this forum
You cannot edit your posts in this forum
You cannot delete your posts in this forum
You cannot post attachments in this forum

Search for:
Яндекс.Метрика
Powered by phpBB © 2000, 2002, 2005, 2007 phpBB Group