\m/ 80's metal \m/

Информационно-аналитический форум "80 см пыли" (In Search We Trust) "У нас никто никуда не спешит"
Железнодорожная биржа - RailAgent
It is currently 16 Dec 2017

All times are UTC + 3 hours

Spoiler
Chat - temporary registration for foreign users (please leave your application here)







Post new topic Reply to topic  [ 2 posts ] 
Author Message
 
PostPosted: 08 Jan 2016 
Генеральный thrasher
User avatar
Joined: 03 Oct 2008
Posts: 3255
Lоcаtion: Ханты-Мансийский АО
Age: 42
Name: Сергей
Данный демо-альбом был издан на кассетах лейблом Baron Records в 1991 году.Переиздан в 2011.В качестве бонуса добита демка Kyrie Elejson.

Image

Year:1991 (2011 Reissue)
Style:Thrash Metal
Country:Poland
Archive:Flac+Cue+Log+Scans
Size:452Mb
Source:my CD
Label:Thrashing Madness Productions

Tracklist:
01. Preludium: Widma Końca 05:38
02. Obszary Uśpienia 04:31
03. Leprosorium 05:12
04. Letarg 03:21
05. Powszechna Maskarada 05:06
06. W Sheol 04:04
07. Succubus 04:06
08. Fantomy Życia 05:42
09. Ewangelia 01:48
Kyrie Elejson (demo 1989)
10. Miriamne 04:17
11. Nagrobek Maga 05:17
12. Schizofrenia 04:30
13. Świat Widziadeł 03:00
14. Odchodząc W Strugach Deszczu 04:07
15. Nocny Posłaniec 06:00

"Cue"
REM GENRE "Thrash Metal"
REM DATE 2011
REM DISCID C50F970F
REM COMMENT "ExactAudioCopy v1.1"
PERFORMER "Nightmare "
TITLE "Misterium Przeklenstw"
FILE "Nightmare - Misterium Przeklenstw.flac" WAVE
TRACK 01 AUDIO
TITLE "Preludium: widma końca"
PERFORMER "Nightmare "
FLAGS DCP
INDEX 01 00:00:00
TRACK 02 AUDIO
TITLE "Obszary uśpienia"
PERFORMER "Nightmare "
FLAGS DCP
INDEX 00 05:35:31
INDEX 01 05:37:31
TRACK 03 AUDIO
TITLE "Leprosorium"
PERFORMER "Nightmare "
FLAGS DCP
INDEX 00 10:06:31
INDEX 01 10:08:31
TRACK 04 AUDIO
TITLE "Letarg"
PERFORMER "Nightmare "
FLAGS DCP
INDEX 00 15:17:67
INDEX 01 15:19:67
TRACK 05 AUDIO
TITLE "Powszechna maskarada"
PERFORMER "Nightmare "
FLAGS DCP
INDEX 00 18:38:08
INDEX 01 18:40:08
TRACK 06 AUDIO
TITLE "W Sheol"
PERFORMER "Nightmare "
FLAGS DCP
INDEX 00 23:43:11
INDEX 01 23:45:11
TRACK 07 AUDIO
TITLE "Succubus"
PERFORMER "Nightmare "
FLAGS DCP
INDEX 00 27:46:25
INDEX 01 27:48:25
TRACK 08 AUDIO
TITLE "Fantomy życia"
PERFORMER "Nightmare "
FLAGS DCP
INDEX 00 31:51:63
INDEX 01 31:53:63
TRACK 09 AUDIO
TITLE "Ewangelia"
PERFORMER "Nightmare "
FLAGS DCP
INDEX 00 37:33:33
INDEX 01 37:35:33
TRACK 10 AUDIO
TITLE "Miriamne"
PERFORMER "Nightmare "
FLAGS DCP
INDEX 00 39:20:54
INDEX 01 39:22:54
TRACK 11 AUDIO
TITLE "Nagrobek maga"
PERFORMER "Nightmare "
FLAGS DCP
INDEX 00 43:37:22
INDEX 01 43:39:22
TRACK 12 AUDIO
TITLE "Schizofrenia"
PERFORMER "Nightmare "
FLAGS DCP
INDEX 00 48:53:71
INDEX 01 48:55:71
TRACK 13 AUDIO
TITLE "Świat widziadeł"
PERFORMER "Nightmare "
FLAGS DCP
INDEX 00 53:23:44
INDEX 01 53:25:44
TRACK 14 AUDIO
TITLE "Odchodząc w strugach deszczu"
PERFORMER "Nightmare "
FLAGS DCP
INDEX 00 56:23:09
INDEX 01 56:25:09
TRACK 15 AUDIO
TITLE "Nocny posłaniec"
PERFORMER "Nightmare "
FLAGS DCP
INDEX 00 60:29:50
INDEX 01 60:31:50

"Log"
Exact Audio Copy V1.1 from 23. June 2015

Отчёт EAC об извлечении, выполненном 31. декабря 2015, 18:09

Nightmare / Misterium Przekleństw

Дисковод: HL-DT-STDVDRAM GTA0N Adapter: 1 ID: 0

Режим чтения : Достоверность
Использование точного потока : Да
Отключение кэша аудио : Да
Использование указателей C2 : Нет

Коррекция смещения при чтении : 102
Способность читать области Lead-in и Lead-out : Нет
Заполнение пропущенных сэмплов тишиной : Да
Удаление блоков с тишиной в начале и конце : Нет
При вычислениях CRC использовались нулевые сэмплы : Да
Интерфейс : Встроенный Win32-интерфейс для Win NT/2000

Выходной формат : Пользовательский кодировщик
Выбранный битрейт : 768 kBit/s
Качество : Высокий
Добавление ID3-тега : Нет
Утилита сжатия : C:\Program Files (x86)\Exact Audio Copy\FLAC\FLAC.EXE
Дополнительные параметры : -6 -V -T "ARTIST=%artist%" -T "TITLE=%title%" -T "ALBUM=%albumtitle%" -T "DATE=%year%" -T "TRACKNUMBER=%tracknr%" -T "GENRE=%genre%" -T "COMMENT=%comment%" -T "BAND=%albuminterpret%" -T "ALBUMARTIST=%albuminterpret%" -T "COMPOSER=%composer%" %haslyrics%--tag-from-file=LYRICS="%lyricsfile%"%haslyrics% -T "DISCNUMBER=%cdnumber%" -T "TOTALDISCS=%totalcds%" -T "TOTALTRACKS=%numtracks%" %hascover%--picture="%coverfile%"%hascover% %source% -o %dest%


TOC извлечённого CD

Трек | Старт | Длительность | Начальный сектор | Конечный сектор
---------------------------------------------------------------------
1 | 0:00.00 | 5:37.31 | 0 | 25305
2 | 5:37.31 | 4:31.00 | 25306 | 45630
3 | 10:08.31 | 5:11.36 | 45631 | 68991
4 | 15:19.67 | 3:20.16 | 68992 | 84007
5 | 18:40.08 | 5:05.03 | 84008 | 106885
6 | 23:45.11 | 4:03.14 | 106886 | 125124
7 | 27:48.25 | 4:05.38 | 125125 | 143537
8 | 31:53.63 | 5:41.45 | 143538 | 169157
9 | 37:35.33 | 1:47.21 | 169158 | 177203
10 | 39:22.54 | 4:16.43 | 177204 | 196446
11 | 43:39.22 | 5:16.49 | 196447 | 220195
12 | 48:55.71 | 4:29.48 | 220196 | 240418
13 | 53:25.44 | 2:59.40 | 240419 | 253883
14 | 56:25.09 | 4:06.41 | 253884 | 272374
15 | 60:31.50 | 5:59.51 | 272375 | 299350


Характеристики диапазона извлечения и сообщения об ошибках

Выбранный диапазон

Имя файла C:\Users\магазин\Music\Nightmare - Misterium Przekleństw.wav

Пиковый уровень 100.0 %
Скорость извлечения 4.2 X
Качество диапазона 100.0 %
CRC копии C43D3016
Копирование... OK

Ошибок не произошло


AccurateRip: сводка

Трек 1 : извлечено точно (доверие 1) [A18C1CAD] (AR v2)
Трек 2 : извлечено точно (доверие 1) [4626864B] (AR v2)
Трек 3 : извлечено точно (доверие 1) [839083F9] (AR v2)
Трек 4 : извлечено точно (доверие 1) [86D523DB] (AR v2)
Трек 5 : извлечено точно (доверие 1) [A59C90B5] (AR v2)
Трек 6 : извлечено точно (доверие 1) [9BB569F7] (AR v2)
Трек 7 : извлечено точно (доверие 1) [6E49540F] (AR v2)
Трек 8 : извлечено точно (доверие 1) [1295ED68] (AR v2)
Трек 9 : извлечено точно (доверие 1) [D4A47138] (AR v2)
Трек 10 : извлечено точно (доверие 1) [80D5CC67] (AR v2)
Трек 11 : извлечено точно (доверие 1) [39180461] (AR v2)
Трек 12 : извлечено точно (доверие 1) [FCC5D2C5] (AR v2)
Трек 13 : извлечено точно (доверие 1) [5E125DD4] (AR v2)
Трек 14 : извлечено точно (доверие 1) [86128A77] (AR v2)
Трек 15 : извлечено точно (доверие 1) [CF41611B] (AR v2)

Все треки извлечены точно

Конец отчёта

---- CUETools DB Plugin V2.1.6

[CTDB TOCID: QUKG5cBl.tKDy3jKM1bFeGrCFAk-] found
Submit result: QUKG5cBl.tKDy3jKM1bFeGrCFAk- has been confirmed
Track | CTDB Status
1 | (1/1) Accurately ripped
2 | (1/1) Accurately ripped
3 | (1/1) Accurately ripped
4 | (1/1) Accurately ripped
5 | (1/1) Accurately ripped
6 | (1/1) Accurately ripped
7 | (1/1) Accurately ripped
8 | (1/1) Accurately ripped
9 | (1/1) Accurately ripped
10 | (1/1) Accurately ripped
11 | (1/1) Accurately ripped
12 | (1/1) Accurately ripped
13 | (1/1) Accurately ripped
14 | (1/1) Accurately ripped
15 | (1/1) Accurately ripped


Misterium Przekleństw


Top
 Profile  
 
 
PostPosted: 08 Jan 2016 
Навечно изгнанный
User avatar
Joined: 04 May 2009
Posts: 470
Lоcаtion: Загорск (Сергиев Посад)
Age: 46
Name: Евгений
Спасибо! :thanx:

_________________
"$? -Это не деньги! Рубли давайте!"


Top
 Profile  
 
Display posts from previous:  Sort by  
Post new topic Reply to topic  [ 2 posts ] 

All times are UTC + 3 hours


Who is online

Users browsing this forum: No registered users and 1 guest


You cannot post new topics in this forum
You cannot reply to topics in this forum
You cannot edit your posts in this forum
You cannot delete your posts in this forum
You cannot post attachments in this forum

Search for:
Яндекс.Метрика
Powered by phpBB © 2000, 2002, 2005, 2007 phpBB Group