\m/ 80's metal \m/

Информационно-аналитический форум "80 см пыли" (In Search We Trust) "У нас никто никуда не спешит"
Железнодорожная биржа - RailAgent
It is currently 14 Dec 2017

All times are UTC + 3 hours

Spoiler
Chat - temporary registration for foreign users (please leave your application here)







Post new topic Reply to topic  [ 1 post ] 
Author Message
 
PostPosted: 08 Jan 2016 
Генеральный thrasher
User avatar
Joined: 03 Oct 2008
Posts: 3255
Lоcаtion: Ханты-Мансийский АО
Age: 42
Name: Сергей
Очередной артефакт польской трэш-сцены далёкой эпохи,эксгумированный лейблом Thrashing Madness Productions.Сырая смесь трэша с дэтом.Взял из любви к польской экстремальной музыке.

Image

Year:1993 (2012 Reissue)
Style:Thrash Metal
Country:Poland
Archive:Flac+Cue+Log+Scans
Size:492Mb
Source:my CD
Label:Thrashing Madness Productions

Tracklist:
01. Nocturnal Winds 05:46
02. The Conscience 02:28
03. Cryptic Songs 04:34
04. Fallen Love 05:14
05. Nameless 01:31
06. Looking For The Paradise 04:24
07. Picture Of Evil 04:33
08. Celebration Of The Wolf 03:42
09. The Lost 04:08
10. Awakening 03:23
The Evil (demo 1992)
11. Looking For The Paradise 04:42
12. Grave At The Wall 04:49
13. Doomsday Of The Wolf 04:13
14. The Spiritist 00:50
Live Tracks
15. The Wormgod (live) 04:07
16. Doomsday Of The Wolf (live) 04:07

"Cue"
REM GENRE "Thrash Metal"
REM DATE 2012
REM DISCID DC0EDB10
REM COMMENT "ExactAudioCopy v1.1"
PERFORMER "Nightmare"
TITLE "Cryptic Songs"
FILE "Nightmare - Cryptic Songs.flac" WAVE
TRACK 01 AUDIO
TITLE "Nocturnal Winds"
PERFORMER "Nightmare"
FLAGS DCP
INDEX 01 00:00:00
TRACK 02 AUDIO
TITLE "The Conscience"
PERFORMER "Nightmare"
FLAGS DCP
INDEX 00 05:43:04
INDEX 01 05:45:04
TRACK 03 AUDIO
TITLE "Cryptic Songs"
PERFORMER "Nightmare"
FLAGS DCP
INDEX 00 09:10:05
INDEX 01 09:12:05
TRACK 04 AUDIO
TITLE "Fallen Love"
PERFORMER "Nightmare"
FLAGS DCP
INDEX 00 13:43:28
INDEX 01 13:45:28
TRACK 05 AUDIO
TITLE "Nameless"
PERFORMER "Nightmare"
FLAGS DCP
INDEX 00 18:56:59
INDEX 01 18:58:59
TRACK 06 AUDIO
TITLE "Looking For The Paradise"
PERFORMER "Nightmare"
FLAGS DCP
INDEX 00 20:27:10
INDEX 01 20:29:10
TRACK 07 AUDIO
TITLE "Picture Of Evil"
PERFORMER "Nightmare"
FLAGS DCP
INDEX 00 24:51:06
INDEX 01 24:53:06
TRACK 08 AUDIO
TITLE "Celebration Of The Wolf"
PERFORMER "Nightmare"
FLAGS DCP
INDEX 00 29:23:40
INDEX 01 29:25:40
TRACK 09 AUDIO
TITLE "The Lost"
PERFORMER "Nightmare"
FLAGS DCP
INDEX 00 33:05:33
INDEX 01 33:07:33
TRACK 10 AUDIO
TITLE "Awakening"
PERFORMER "Nightmare"
FLAGS DCP
INDEX 00 37:13:29
INDEX 01 37:15:29
TRACK 11 AUDIO
TITLE "Looking For The Paradise"
PERFORMER "Nightmare"
FLAGS DCP
INDEX 00 40:35:66
INDEX 01 40:37:66
TRACK 12 AUDIO
TITLE "Grave At The Wall "
PERFORMER "Nightmare"
FLAGS DCP
INDEX 00 45:17:66
INDEX 01 45:19:66
TRACK 13 AUDIO
TITLE "Doomsday Of The Wolf"
PERFORMER "Nightmare"
FLAGS DCP
INDEX 00 50:06:66
INDEX 01 50:08:66
TRACK 14 AUDIO
TITLE "The Spiritist"
PERFORMER "Nightmare"
FLAGS DCP
INDEX 00 54:19:66
INDEX 01 54:21:66
TRACK 15 AUDIO
TITLE "The Wormgod (live)"
PERFORMER "Nightmare"
FLAGS DCP
INDEX 00 55:08:67
INDEX 01 55:10:67
TRACK 16 AUDIO
TITLE "Doomsday Of The Wolf (live)"
PERFORMER "Nightmare"
FLAGS DCP
INDEX 01 59:17:10

"Log"
Exact Audio Copy V1.1 from 23. June 2015

Отчёт EAC об извлечении, выполненном 31. декабря 2015, 17:50

Nightmare / Cryptic Songs

Дисковод: HL-DT-STDVDRAM GTA0N Adapter: 1 ID: 0

Режим чтения : Достоверность
Использование точного потока : Да
Отключение кэша аудио : Да
Использование указателей C2 : Нет

Коррекция смещения при чтении : 102
Способность читать области Lead-in и Lead-out : Нет
Заполнение пропущенных сэмплов тишиной : Да
Удаление блоков с тишиной в начале и конце : Нет
При вычислениях CRC использовались нулевые сэмплы : Да
Интерфейс : Встроенный Win32-интерфейс для Win NT/2000

Выходной формат : Пользовательский кодировщик
Выбранный битрейт : 768 kBit/s
Качество : Высокий
Добавление ID3-тега : Нет
Утилита сжатия : C:\Program Files (x86)\Exact Audio Copy\FLAC\FLAC.EXE
Дополнительные параметры : -6 -V -T "ARTIST=%artist%" -T "TITLE=%title%" -T "ALBUM=%albumtitle%" -T "DATE=%year%" -T "TRACKNUMBER=%tracknr%" -T "GENRE=%genre%" -T "COMMENT=%comment%" -T "BAND=%albuminterpret%" -T "ALBUMARTIST=%albuminterpret%" -T "COMPOSER=%composer%" %haslyrics%--tag-from-file=LYRICS="%lyricsfile%"%haslyrics% -T "DISCNUMBER=%cdnumber%" -T "TOTALDISCS=%totalcds%" -T "TOTALTRACKS=%numtracks%" %hascover%--picture="%coverfile%"%hascover% %source% -o %dest%


TOC извлечённого CD

Трек | Старт | Длительность | Начальный сектор | Конечный сектор
---------------------------------------------------------------------
1 | 0:00.00 | 5:45.04 | 0 | 25878
2 | 5:45.04 | 3:27.01 | 25879 | 41404
3 | 9:12.05 | 4:33.23 | 41405 | 61902
4 | 13:45.28 | 5:13.31 | 61903 | 85408
5 | 18:58.59 | 1:30.26 | 85409 | 92184
6 | 20:29.10 | 4:23.71 | 92185 | 111980
7 | 24:53.06 | 4:32.34 | 111981 | 132414
8 | 29:25.40 | 3:41.68 | 132415 | 149057
9 | 33:07.33 | 4:07.71 | 149058 | 167653
10 | 37:15.29 | 3:22.37 | 167654 | 182840
11 | 40:37.66 | 4:42.00 | 182841 | 203990
12 | 45:19.66 | 4:49.00 | 203991 | 225665
13 | 50:08.66 | 4:13.00 | 225666 | 244640
14 | 54:21.66 | 0:49.01 | 244641 | 248316
15 | 55:10.67 | 4:06.18 | 248317 | 266784
16 | 59:17.10 | 4:06.43 | 266785 | 285277


Характеристики диапазона извлечения и сообщения об ошибках

Выбранный диапазон

Имя файла C:\Users\магазин\Music\Nightmare - Cryptic Songs.wav

Пиковый уровень 100.0 %
Скорость извлечения 4.1 X
Качество диапазона 99.9 %
CRC копии 17FF3986
Копирование... OK

Ошибок не произошло


AccurateRip: сводка

Трек 1 отсутствует в базе данных
Трек 2 отсутствует в базе данных
Трек 3 отсутствует в базе данных
Трек 4 отсутствует в базе данных
Трек 5 отсутствует в базе данных
Трек 6 отсутствует в базе данных
Трек 7 отсутствует в базе данных
Трек 8 отсутствует в базе данных
Трек 9 отсутствует в базе данных
Трек 10 отсутствует в базе данных
Трек 11 отсутствует в базе данных
Трек 12 отсутствует в базе данных
Трек 13 отсутствует в базе данных
Трек 14 отсутствует в базе данных
Трек 15 отсутствует в базе данных
Трек 16 отсутствует в базе данных

Ни одного трека нет в базе AccurateRip

Конец отчёта

---- CUETools DB Plugin V2.1.6

[CTDB TOCID: mgxNAv89LF8jwkq539qkKwp4y5M-] found
Submit result: mgxNAv89LF8jwkq539qkKwp4y5M- has been confirmed
Track | CTDB Status
1 | (1/1) Accurately ripped
2 | (1/1) Accurately ripped
3 | (1/1) Accurately ripped
4 | (1/1) Accurately ripped
5 | (1/1) Accurately ripped
6 | (1/1) Accurately ripped
7 | (1/1) Accurately ripped
8 | (1/1) Accurately ripped
9 | (1/1) Accurately ripped
10 | (1/1) Accurately ripped
11 | (1/1) Accurately ripped
12 | (1/1) Accurately ripped
13 | (1/1) Accurately ripped
14 | (1/1) Accurately ripped
15 | (1/1) Accurately ripped
16 | (1/1) Accurately ripped


Cryptic Songs


Top
 Profile  
 
Display posts from previous:  Sort by  
Post new topic Reply to topic  [ 1 post ] 

All times are UTC + 3 hours


Who is online

Users browsing this forum: No registered users and 3 guests


You cannot post new topics in this forum
You cannot reply to topics in this forum
You cannot edit your posts in this forum
You cannot delete your posts in this forum
You cannot post attachments in this forum

Search for:
Яндекс.Метрика
Powered by phpBB © 2000, 2002, 2005, 2007 phpBB Group