\m/ 80's metal \m/

Информационно-аналитический форум "80 см пыли" (In Search We Trust) "У нас никто никуда не спешит"
Железнодорожная биржа - RailAgent
It is currently 14 Dec 2017

All times are UTC + 3 hours

Spoiler
Chat - temporary registration for foreign users (please leave your application here)







Post new topic Reply to topic  [ 6 posts ] 
Author Message
 
PostPosted: 16 May 2014 
\m/ 80 см сала \m/
User avatar
Joined: 12 Mar 2012
Posts: 2476
Age: 24
Name: Nick
Image

Country of origin: Germany
Location: Lörrach, Baden-Württemberg
Status: Active
Formed in: 1984
Genre: Thrash Metal
Lyrical themes: Evil, Death, Satanism, Occultism, Suffering
Years active: 1984-present

1985 - Necronomicon (1991, Kraze, 3275-11075-2, USA)
Image

01. Blind Destruction 3:57
02. Hades Invasion 4:38
03. Magic Forest 5:55
04. Iron Charm 5:46
05. Dark Land 6:51
06. Possessed By Evil 4:24
07. Bloody Revenge 3:52
08. Insanity 3:06

Ya.Disk by Revici (FLAC image+.cue+scans)

1987 - Apocalyptic Nightmare (1991, Kraze, 3275-11076-2, USA)
Image

01. The Ancient Ones 06:42
02. Apocalyptic Nightmare 06:32
03. The Following Century (Darkland II) 06:22
04. Rhetorical Dictums 05:16
05. In Memory 05:50
06. Broken Illusions 05:38
07. Retributive Strike 06:01ї

Ya.Disk (FLAC image+.cue+scans)

1988 - Escalation (1988, Scracth, 10822, W. Germany)
Image

01. Death Toll
02. Black Frost
03. Dirty Minds
04. Skeletal Remains
05. Murder of Profit
06. ...and the Night Will Be Silent
07. Mosh the ABC
08. Cold Ages (Darkland III)

Ya.Disk by metaleonid (FLAC tracks)

Благодарности за рипы отправлять Revici (1985), metaleonid (1988) и неизвестному мне Валере из простор сети (1987) :thanx:
На всех рипах треклист отличается от винильного - в переизданиях 85-87 перепутаны стороны, в издании 88 несколько изменен порядок песен.

_________________
1990 AUROPHON BRAINSTORM (Germany) - lossless
1994 MAUSOLEUM CLASSIX (Belgium-Germany) - lossless
1998 VA - GRIM HARVEST - Complete Metal Massacre Volumes I-XII


Top
 Profile  
 
 
PostPosted: 16 May 2014 
Хиппей (support team)
User avatar
Joined: 30 Jul 2007
Posts: 97007
Lоcаtion: Киев (Kyiv, UA)
Age: 44
Name: Andrey
:thanx:

_________________


Top
 Profile E-mail  
 
 
PostPosted: 16 May 2014 
5-speed satisfactor
User avatar
Joined: 16 Feb 2009
Posts: 3364
Lоcаtion: New York, USA
Age: 39
Name: Leonid
Revici оцифровал винил?

_________________
Death rules! Metal to all who oppose!


Top
 Profile  
 
 
PostPosted: 16 May 2014 
\m/ 80 см сала \m/
User avatar
Joined: 12 Mar 2012
Posts: 2476
Age: 24
Name: Nick
Нет, рип с цыдика: http://rutracker.org/forum/viewtopic.php?t=3400516

_________________
1990 AUROPHON BRAINSTORM (Germany) - lossless
1994 MAUSOLEUM CLASSIX (Belgium-Germany) - lossless
1998 VA - GRIM HARVEST - Complete Metal Massacre Volumes I-XII


Top
 Profile  
 
 
PostPosted: 28 Jun 2014 
А может смените мне статус?..
User avatar
Joined: 04 Jul 2009
Posts: 612
Age: 44
Name: dima
1988 - Escalation [1988, Scratch Rec., 10822, Germany]

https://yadi.sk/d/SrqKnPCTVCNaq

"ЛОГ"
Exact Audio Copy V1.0 beta 3 from 29. August 2011

EAC extraction logfile from 28. June 2014, 12:49

Necronomicon / Escalation [Scratch Rec., 10822, Germany]

Used drive : virtual drive Adapter: 6 ID: 0

Read mode : Secure
Utilize accurate stream : Yes
Defeat audio cache : Yes
Make use of C2 pointers : No

Read offset correction : 0
Overread into Lead-In and Lead-Out : No
Fill up missing offset samples with silence : Yes
Delete leading and trailing silent blocks : No
Null samples used in CRC calculations : Yes
Used interface : Installed external ASPI interface

Used output format : User Defined Encoder
Selected bitrate : 1024 kBit/s
Quality : High
Add ID3 tag : No
Command line compressor : C:\Program Files\Exact Audio Copy\FLAC\FLAC.EXE
Additional command line options : -V -8 -T "Date=%year%" -T "Genre=%genre%" %source%


TOC of the extracted CD

Track | Start | Length | Start sector | End sector
---------------------------------------------------------
1 | 0:00.00 | 6:09.00 | 0 | 27674
2 | 6:09.00 | 2:21.25 | 27675 | 38274
3 | 8:30.25 | 3:38.25 | 38275 | 54649
4 | 12:08.50 | 3:27.25 | 54650 | 70199
5 | 15:36.00 | 3:55.05 | 70200 | 87829
6 | 19:31.05 | 4:29.33 | 87830 | 108037
7 | 24:00.38 | 2:17.25 | 108038 | 118337
8 | 26:17.63 | 6:40.00 | 118338 | 148337


Range status and errors

Selected range

Filename C:\CDRip by Deminbek\Necronomicon - Escalation [Scratch Rec., 10822, Germany].wav

Peak level 100.0 %
Extraction speed 69.4 X
Range quality 100.0 %
Copy CRC 6259D3CF
Copy OK

No errors occurred

End of status report

---- CUETools DB Plugin V2.1.4

[CTDB TOCID: TPel4lh0b574DgyqR9cP3sX4Pq4-] found
Submit result: unrecognized or virtual drive
Track | CTDB Status
1 | (3/3) Accurately ripped
2 | (3/3) Accurately ripped
3 | (3/3) Accurately ripped
4 | (3/3) Accurately ripped
5 | (3/3) Accurately ripped
6 | (3/3) Accurately ripped
7 | (3/3) Accurately ripped
8 | (3/3) Accurately ripped


==== Log checksum B6D0C972F1014F7DD2FB8E85ABA49E79F620DB5EABA87146FD83533455964254 ====


Манипуляции те же, что и с Exodus


Top
 Profile E-mail  
 
 
PostPosted: 28 Jun 2014 
Хиппей (support team)
User avatar
Joined: 30 Jul 2007
Posts: 97007
Lоcаtion: Киев (Kyiv, UA)
Age: 44
Name: Andrey
:thanx:

mirror: M-Cloud l Narod

_________________


Top
 Profile E-mail  
 
Display posts from previous:  Sort by  
Post new topic Reply to topic  [ 6 posts ] 

All times are UTC + 3 hours


Who is online

Users browsing this forum: No registered users and 3 guests


You cannot post new topics in this forum
You cannot reply to topics in this forum
You cannot edit your posts in this forum
You cannot delete your posts in this forum
You cannot post attachments in this forum

Search for:
Яндекс.Метрика
Powered by phpBB © 2000, 2002, 2005, 2007 phpBB Group