\m/ 80's metal \m/

Информационно-аналитический форум "80 см пыли" (In Search We Trust) "У нас никто никуда не спешит"
Железнодорожная биржа - RailAgent
It is currently 13 Dec 2017

All times are UTC + 3 hours

Spoiler
Chat - temporary registration for foreign users (please leave your application here)







Post new topic Reply to topic  [ 32 posts ]  Go to page 1, 2  Next
Author Message
 
PostPosted: 23 Feb 2014 
Персональный статус
User avatar
Joined: 04 Mar 2012
Posts: 236
Lоcаtion: Саратов
Name: Василий
Image
http://www.metal-archives.com/albums/Ni ... der/298351
Спидак на пятак! В любом качестве бы :oops:
Очень и очень..
phpBB [youtube]


Top
 Profile E-mail  
 
 
PostPosted: 23 Feb 2014 
А может смените мне статус?..
User avatar
Joined: 28 Jul 2008
Posts: 903
Lоcаtion: Украина---Днепропетровск
Age: 43
Name: Александр
Только демо 1990(4 трека)

_________________
Музыка в которой я растворяюсь многих угнетает......


Top
 Profile  
 
 
PostPosted: 23 Feb 2014 
А может смените мне статус?..
User avatar
Joined: 28 Jul 2008
Posts: 903
Lоcаtion: Украина---Днепропетровск
Age: 43
Name: Александр
может будет сегодня весь :vic:

_________________
Музыка в которой я растворяюсь многих угнетает......


Top
 Profile  
 
 
PostPosted: 23 Feb 2014 
Персональный статус
User avatar
Joined: 04 Mar 2012
Posts: 236
Lоcаtion: Саратов
Name: Василий
Quote:
может будет сегодня весь

Хорошо б! :smile:


Top
 Profile E-mail  
 
 
PostPosted: 23 Feb 2014 
Персональный статус
User avatar
Joined: 04 Mar 2012
Posts: 236
Lоcаtion: Саратов
Name: Василий
А что, можно демку пока? А то у Страппадо ссыль усопла..


Top
 Profile E-mail  
 
 
PostPosted: 23 Feb 2014 
А может смените мне статус?..
User avatar
Joined: 28 Jul 2008
Posts: 903
Lоcаtion: Украина---Днепропетровск
Age: 43
Name: Александр
я епишку и полноформатник у блогера попросил-заказал-когда ответит тогда будет!

_________________
Музыка в которой я растворяюсь многих угнетает......


Top
 Profile  
 
 
PostPosted: 24 Feb 2014 
Персональный статус
User avatar
Joined: 04 Mar 2012
Posts: 236
Lоcаtion: Саратов
Name: Василий
:true:


Top
 Profile E-mail  
 
 
PostPosted: 24 Feb 2014 
А может смените мне статус?..
User avatar
Joined: 28 Jul 2008
Posts: 903
Lоcаtion: Украина---Днепропетровск
Age: 43
Name: Александр
Approaching Thunder-1990
mp3-320-85mb
1. Reign 04:10
2. The Final Book 05:19
3. Vote for Me 05:56
4. Season of Decay 03:46
5. Power of Hate 06:52
6. For the Faithful 03:24
7. Feed the Path 04:55
8. Holy Inquisition 05:51
40:13
http://dfiles.ru/files/e0beis6ra

Cult of the Moon-1993
Image
mp3-320-132mb
1. Dark Night Dance 04:19
2. Twisted out of Mind 07:15
3. What Have I Done? 06:59
4. Cult of the Moon 06:37
5. Practice Makes Perfect 04:08
6. Reign (live) 04:00
7. The Final Book (live) 05:02
8. Twisted out of Mind (live) 06:33
9. What Have I Done (live) 06:57 instrumental
10. Practice Makes Perfect (live) 04:03
11. Holy Inquisition (live) 06:24
01:02:17
http://dfiles.ru/files/3tfi309x4

_________________
Музыка в которой я растворяюсь многих угнетает......


Top
 Profile  
 
 
PostPosted: 25 Feb 2014 
Персональный статус
User avatar
Joined: 04 Mar 2012
Posts: 236
Lоcаtion: Саратов
Name: Василий
:thanx: :thanx: :true:


Top
 Profile E-mail  
 
 
PostPosted: 25 Feb 2014 
Дежурный по КУПу
User avatar
Joined: 17 Aug 2007
Posts: 5730
Age: 49
Name: Ге
:thanx:

_________________
http://jp-mania.ru/
http://jp-tourdates.ucoz.ru/


Top
 Profile  
 
 
PostPosted: 29 May 2014 
Работнечег
User avatar
Joined: 28 Aug 2007
Posts: 5019
Lоcаtion: г. Москва
Age: 28
Name: Дима
Спасибо за альбомы! :thanx: Что-то ищется еще?


Top
 Profile E-mail  
 
 
PostPosted: 19 Jul 2014 
Работнечег
User avatar
Joined: 28 Aug 2007
Posts: 5019
Lоcаtion: г. Москва
Age: 28
Name: Дима
Спидак действительно на пять, только самые лучшие впечатления после прослушивания Approaching Thunder (1990) :true:


Top
 Profile E-mail  
 
 
PostPosted: 20 Jul 2014 
Хиппей (support team)
User avatar
Joined: 30 Jul 2007
Posts: 96973
Lоcаtion: Киев (Kyiv, UA)
Age: 44
Name: Andrey
:thanx:

mirrors:

1990 - Narod l M-Cloud
1993 - Narod l M-Cloud

_________________


Top
 Profile E-mail  
 
 
PostPosted: 20 Jul 2014 
Хиппей (support team)
User avatar
Joined: 30 Jul 2007
Posts: 96973
Lоcаtion: Киев (Kyiv, UA)
Age: 44
Name: Andrey
Naftalin wrote:
Спидак на пятак!

church wrote:
Спидак действительно на пять, только самые лучшие впечатления после прослушивания Approaching Thunder (1990)

:shok: :shok: :shok: :shok: :shok:

Вы чиво?

Слушаю этот заунывный типа трэшевый альбом и пытаюсь найтии хоть одну реально быструю композицию.
Эээ, и где они? Что вы за альбом слушали то? :fingal:
Это ж какой-то недоКелтикФрост :vic:

3/10

Миник от 93 года, добитый кучей бонусов - вообще хрень какая-то :esel:

_________________


Top
 Profile E-mail  
 
 
PostPosted: 25 Jan 2015 
Работнечег
User avatar
Joined: 28 Aug 2007
Posts: 5019
Lоcаtion: г. Москва
Age: 28
Name: Дима
Image

Year: 1990/2010
Genre: Heavy/Thrash Metal
Coutry: UK
Format: Flac + Log + Cue + Covers (without Back)
Size: 295 Mb

Line-Up:
Jamie Thorne - Bass, Vocals
Neil Wiseman - Drums
James McKenzie - Guitars
Ferenc Collins - Guitars


Tracklist:
1. Reign 04:10
2. The Final Book 05:19
3. Vote for Me 05:56
4. Season of Decay 03:46
5. Power of Hate 06:52
6. For the Faithful 03:24
7. Feed the Path 04:55
8. Holy Inquisition 05:51

LOG
Exact Audio Copy V0.99 prebeta 5 from 4. May 2009

EAC extraction logfile from 20. January 2015, 23:43

Nightlord / Approaching Thunder (Remastered In 2010)

Used drive : PIONEER DVD-RW DVR-221 Adapter: 2 ID: 1

Read mode : Secure
Utilize accurate stream : Yes
Defeat audio cache : Yes
Make use of C2 pointers : No

Read offset correction : 6
Overread into Lead-In and Lead-Out : No
Fill up missing offset samples with silence : Yes
Delete leading and trailing silent blocks : No
Null samples used in CRC calculations : Yes
Used interface : Native Win32 interface for Win NT & 2000

Used output format : User Defined Encoder
Selected bitrate : 32 kBit/s
Quality : High
Add ID3 tag : No
Command line compressor : C:\Program Files\Exact Audio Copy\Flac\flac.exe
Additional command line options : -6 -V %s


TOC of the extracted CD

Track | Start | Length | Start sector | End sector
---------------------------------------------------------
1 | 0:00.00 | 4:10.60 | 0 | 18809
2 | 4:10.60 | 5:19.09 | 18810 | 42743
3 | 9:29.69 | 5:56.26 | 42744 | 69469
4 | 15:26.20 | 3:46.57 | 69470 | 86476
5 | 19:13.02 | 6:52.00 | 86477 | 117376
6 | 26:05.02 | 3:24.69 | 117377 | 132745
7 | 29:29.71 | 4:55.23 | 132746 | 154893
8 | 34:25.19 | 5:51.69 | 154894 | 181287


Range status and errors

Selected range

Filename D:\Музыка\Lossless\Nightlord - Approaching Thunder (1990)(Remastered In 2010)\Nightlord - Approaching Thunder.wav

Peak level 93.2 %
Range quality 100.0 %
Copy CRC 783415F1
Copy OK

No errors occurred


AccurateRip summary

Track 1 not present in database
Track 2 not present in database
Track 3 not present in database
Track 4 not present in database
Track 5 not present in database
Track 6 not present in database
Track 7 not present in database
Track 8 not present in database

None of the tracks are present in the AccurateRip database

End of status report

CUE
REM GENRE "Speed Metal"
REM DATE 1990
REM DISCID 69097108
REM COMMENT "ExactAudioCopy v0.99pb5"
PERFORMER "Nightlord"
TITLE "Approaching Thunder (Remastered In 2010)"
FILE "Nightlord - Approaching Thunder.flac" WAVE
TRACK 01 AUDIO
TITLE "Reign"
PERFORMER "Nightlord"
INDEX 01 00:00:00
TRACK 02 AUDIO
TITLE "The Final Book"
PERFORMER "Nightlord"
INDEX 01 04:10:60
TRACK 03 AUDIO
TITLE "Vote For Me"
PERFORMER "Nightlord"
INDEX 01 09:29:69
TRACK 04 AUDIO
TITLE "Season Of Decay"
PERFORMER "Nightlord"
INDEX 01 15:26:20
TRACK 05 AUDIO
TITLE "Power Of Hate"
PERFORMER "Nightlord"
INDEX 01 19:13:02
TRACK 06 AUDIO
TITLE "For The Faithful"
PERFORMER "Nightlord"
INDEX 01 26:05:02
TRACK 07 AUDIO
TITLE "Feed The Path"
PERFORMER "Nightlord"
INDEX 01 29:29:71
TRACK 08 AUDIO
TITLE "Holy Inquisition"
PERFORMER "Nightlord"
INDEX 01 34:25:19


Yadi


Top
 Profile E-mail  
 
 
PostPosted: 25 Jan 2015 
Генеральный thrasher
User avatar
Joined: 03 Oct 2008
Posts: 3255
Lоcаtion: Ханты-Мансийский АО
Age: 42
Name: Сергей
Не знаю,кто такие.Но заслушаю.Спасибо,Дим!


Top
 Profile  
 
 
PostPosted: 25 Jan 2015 
Хиппей (support team)
User avatar
Joined: 30 Jul 2007
Posts: 96973
Lоcаtion: Киев (Kyiv, UA)
Age: 44
Name: Andrey
:thanx:

mirror: Narod l M-Cloud

_________________


Top
 Profile E-mail  
 
 
PostPosted: 25 Jan 2015 
Прокъмитолист
User avatar
Joined: 12 Aug 2007
Posts: 6252
Lоcаtion: Санктъ-Петербуркъ
Age: 50
Name: Олекъ
спасибо, Дим! :thanx:

_________________
прокъметол - это музыко, от которово есть прок (ы)


Top
 Profile  
 
 
PostPosted: 27 Jan 2015 
ТрэшЭрос
User avatar
Joined: 18 Jul 2011
Posts: 2292
Lоcаtion: Гулькевичи
Age: 42
Name: Александр
:thanx: :true: :lob:

_________________
Thrash no trash!!!


Top
 Profile E-mail  
 
 
PostPosted: 28 Nov 2016 
Partisanen - nicht kapitulieren!!
User avatar
Joined: 25 Dec 2011
Posts: 5833
Lоcаtion: партизанские леса
Age: 45
Name: Владимир
вышел новый альбом - «Reborn In Darkness»
Image
01. Bedlam
02. Omens in Entrails
03. Butcher's Bill
04. Ghosts from the Machines
05. Black, Red and Green
06. Last Rise of Our Dying Sun
07. Gaze of Gorgons
08. Sin Eater
09. Turn of the Tide

мпЗ на рутрацкере ёсть


_________________
One more beer and Heavy Metal and I'm just fine!
старовер, куле... слово "блин" - до сих пор через Ъ говорю


Top
 Profile E-mail  
 
Display posts from previous:  Sort by  
Post new topic Reply to topic  [ 32 posts ]  Go to page 1, 2  Next

All times are UTC + 3 hours


Who is online

Users browsing this forum: No registered users and 1 guest


You cannot post new topics in this forum
You cannot reply to topics in this forum
You cannot edit your posts in this forum
You cannot delete your posts in this forum
You cannot post attachments in this forum

Search for:
Яндекс.Метрика
Powered by phpBB © 2000, 2002, 2005, 2007 phpBB Group