\m/ 80's metal \m/

Информационно-аналитический форум "80 см пыли" (In Search We Trust) "У нас никто никуда не спешит"
Железнодорожная биржа - RailAgent
It is currently 16 Dec 2017

All times are UTC + 3 hours

Spoiler
Chat - temporary registration for foreign users (please leave your application here)







Post new topic Reply to topic  [ 6 posts ] 
Author Message
 
PostPosted: 29 Apr 2012 
Работнечег
User avatar
Joined: 28 Aug 2007
Posts: 5022
Lоcаtion: г. Москва
Age: 28
Name: Дима
Image

Band: Nightwing
Album: A Night Of Mystery - Alive! Alive! (1985)
Year: 1985 (Remastered in ????)
Label: Zoom Club Records, #ZCRCD31
Genre: Rock
Coutry: UK
Format: Flac + Log + Cue + Covers
Size: 259 Mb

Line-Up:
Gordon Rowley - Bass, Vocals
Kenny Newton - Keyboards, Vocals
Steve Bartley - Drums, Percussion, Vocals
Glynn Porrino - Guitars
Dave Evans - Lead Vocals & Percussion


Tracklist:
1. Fantasia 01:33
2. Dressed To Kill 03:47
3. Something In The Air 06:51
4. Cell 151 03:30
5. Night Of Mystery 04:43
6. You Keep Me Hanging On 07:47
7. The Devil Walks Behind Me 04:10
8. Treading Water 05:18

LOG
Exact Audio Copy V0.99 prebeta 5 from 4. May 2009

EAC extraction logfile from 22. April 2012, 13:27

Nightwing / A Night Of Mystery - Alive! Alive!

Used drive : PIONEER DVD-RW DVR-116D Adapter: 0 ID: 0

Read mode : Secure
Utilize accurate stream : Yes
Defeat audio cache : Yes
Make use of C2 pointers : No

Read offset correction : 96
Overread into Lead-In and Lead-Out : No
Fill up missing offset samples with silence : Yes
Delete leading and trailing silent blocks : No
Null samples used in CRC calculations : Yes
Used interface : Native Win32 interface for Win NT & 2000

Used output format : User Defined Encoder
Selected bitrate : 32 kBit/s
Quality : High
Add ID3 tag : No
Command line compressor : C:\Program Files\Exact Audio Copy\Flac\flac.exe
Additional command line options : -6 -V %s


TOC of the extracted CD

Track | Start | Length | Start sector | End sector
---------------------------------------------------------
1 | 0:00.00 | 1:32.55 | 0 | 6954
2 | 1:32.55 | 3:47.00 | 6955 | 23979
3 | 5:19.55 | 6:51.29 | 23980 | 54833
4 | 12:11.09 | 3:29.74 | 54834 | 70582
5 | 15:41.08 | 4:42.39 | 70583 | 91771
6 | 20:23.47 | 7:47.32 | 91772 | 126828
7 | 28:11.04 | 4:10.09 | 126829 | 145587
8 | 32:21.13 | 5:17.54 | 145588 | 169416


Range status and errors

Selected range

Filename D:\Музыка\Lossless\Nightwing - A Night Of Mystery - Alive! Alive! (1985)\Nightwing - A Night Of Mystery - Alive! Alive!.wav

Peak level 99.4 %
Range quality 100.0 %
Copy CRC 06505CC3
Copy OK

No errors occurred


AccurateRip summary

Track 1 not present in database
Track 2 not present in database
Track 3 not present in database
Track 4 not present in database
Track 5 not present in database
Track 6 not present in database
Track 7 not present in database
Track 8 not present in database

None of the tracks are present in the AccurateRip database

End of status report

CUE
REM GENRE Rock
REM DATE 1985
REM DISCID 6008D208
REM COMMENT "ExactAudioCopy v0.99pb5"
PERFORMER "Nightwing"
TITLE "A Night Of Mystery - Alive! Alive!"
FILE "Nightwing - A Night Of Mystery - Alive! Alive!.flac" WAVE
TRACK 01 AUDIO
TITLE "Fantasia"
PERFORMER "Nightwing"
INDEX 01 00:00:00
TRACK 02 AUDIO
TITLE "Dressed To Kill"
PERFORMER "Nightwing"
INDEX 01 01:32:55
TRACK 03 AUDIO
TITLE "Something In The Air"
PERFORMER "Nightwing"
INDEX 01 05:19:55
TRACK 04 AUDIO
TITLE "Cell 151"
PERFORMER "Nightwing"
INDEX 00 12:10:74
INDEX 01 12:11:09
TRACK 05 AUDIO
TITLE "Night Of Mystery"
PERFORMER "Nightwing"
INDEX 00 15:40:73
INDEX 01 15:41:08
TRACK 06 AUDIO
TITLE "You Keep Me Hanging On"
PERFORMER "Nightwing"
INDEX 00 20:22:37
INDEX 01 20:23:47
TRACK 07 AUDIO
TITLE "The Devil Walks Behind You"
PERFORMER "Nightwing"
INDEX 00 28:10:69
INDEX 01 28:11:04
TRACK 08 AUDIO
TITLE "Treading Water"
PERFORMER "Nightwing"
INDEX 00 32:21:03
INDEX 01 32:21:13

Spectrum
Image


Narod.Ru

Для тех кто любит концертники :true:
P.S. Теперь лоси всех альбомов этой замечательной группы, кроме последнего, на форуме собраны :smile:


Top
 Profile E-mail  
 
 
PostPosted: 30 Apr 2012 
Хиппей (support team)
User avatar
Joined: 30 Jul 2007
Posts: 97141
Lоcаtion: Киев (Kyiv, UA)
Age: 44
Name: Andrey
:thanx: :true:

mirror: MultiUp l Speedy l Narod

_________________


Top
 Profile E-mail  
 
 
PostPosted: 30 Apr 2012 
Генеральный thrasher
User avatar
Joined: 03 Oct 2008
Posts: 3255
Lоcаtion: Ханты-Мансийский АО
Age: 42
Name: Сергей
Спасибо,Дим!


Top
 Profile  
 
 
PostPosted: 01 May 2012 
А может смените мне статус?..
User avatar
Joined: 30 Aug 2009
Posts: 824
Lоcаtion: Ачинск, Красноярский край
Age: 31
Name: Стас
:thanx:


Top
 Profile E-mail  
 
 
PostPosted: 01 May 2012 
парень в очёчкXаX!
User avatar
Joined: 15 Aug 2007
Posts: 2353
Lоcаtion: UK'раина, г. ЛондАн Би-Би-Си
Age: 47
Name: Сергей
за раритет :thanx:
уже слушаю :meloman:

по информации recordheaven.net дата релиза 2000-01-01


Top
 Profile  
 
 
PostPosted: 29 May 2012 
Труъ
Joined: 01 Jan 2010
Posts: 118
Lоcаtion: MetaLWarrioR
Name: Сергей
Спасибо!


Top
 Profile E-mail  
 
Display posts from previous:  Sort by  
Post new topic Reply to topic  [ 6 posts ] 

All times are UTC + 3 hours


Who is online

Users browsing this forum: No registered users and 1 guest


You cannot post new topics in this forum
You cannot reply to topics in this forum
You cannot edit your posts in this forum
You cannot delete your posts in this forum
You cannot post attachments in this forum

Search for:
Яндекс.Метрика
Powered by phpBB © 2000, 2002, 2005, 2007 phpBB Group