\m/ 80's metal \m/

Информационно-аналитический форум "80 см пыли" (In Search We Trust) "У нас никто никуда не спешит"
Me For You - http://me-4u.com
It is currently 15 Nov 2018

All times are UTC + 3 hours

Spoiler
Chat - temporary registration for foreign users (please leave your application here)







Post new topic Reply to topic  [ 10 posts ] 
Author Message
 
PostPosted: 10 May 2011 
Работнечег
User avatar
Joined: 28 Aug 2007
Posts: 5511
Lоcаtion: г. Москва
Age: 29
Name: Дима
Image

Band: Metal Church
Album: Hanging In The Balance
Year: 1993
Label: Rising Sun Productions
Genre: Heavy Metal
Coutry: USA
Format: Flac + Log + Cue + Covers
Size: 482 Mb

Line-Up:
John Marshall - Guitars
Craig Wells - Guitars
Kirk Arrington - Drums
Duke Erickson - Bass
Mike Howe - Vocals


Tracklist:
1. Gods of Second Chance 05:23
2. Losers in the Game 05:08
3. Hypnotized 04:43
4. No Friend of Mine 03:58
5. Waiting for a Savior 05:48
6. Conductor 04:10
7. Little Boy 08:13
8. Down to the River 05:01
9. End of the Age 07:17
10. Lovers and Madmen 02:51
11. A Subtle War 04:13
12. Start The Fire (live) (4:17) (Bonus)
13. Fake Healer (live) (5:27) (Bonus)
14. Losers In The Game (live) (5:05) (Bonus)

CUE
REM GENRE "Heavy Metal"
REM DATE 1993
REM DISCID C210C60E
REM COMMENT "ExactAudioCopy v0.99pb5"
PERFORMER "Metal Church"
TITLE "Hanging In The Balance"
FILE "Metal Church - Hanging In The Balance.flac" WAVE
TRACK 01 AUDIO
TITLE "Gods of Second Chance"
PERFORMER "Metal Church"
INDEX 00 00:00:00
INDEX 01 00:00:32
TRACK 02 AUDIO
TITLE "Losers in the Game"
PERFORMER "Metal Church"
INDEX 01 05:23:17
TRACK 03 AUDIO
TITLE "Hypnotized"
PERFORMER "Metal Church"
INDEX 01 10:31:35
TRACK 04 AUDIO
TITLE "No Friend of MIne"
PERFORMER "Metal Church"
INDEX 00 15:14:10
INDEX 01 15:14:45
TRACK 05 AUDIO
TITLE "Waiting for a Savior"
PERFORMER "Metal Church"
INDEX 00 19:09:72
INDEX 01 19:12:25
TRACK 06 AUDIO
TITLE "Conductor"
PERFORMER "Metal Church"
INDEX 00 24:58:30
INDEX 01 25:00:47
TRACK 07 AUDIO
TITLE "Little Boy"
PERFORMER "Metal Church"
INDEX 00 29:09:52
INDEX 01 29:10:32
TRACK 08 AUDIO
TITLE "Down to the River"
PERFORMER "Metal Church"
INDEX 00 37:21:10
INDEX 01 37:23:70
TRACK 09 AUDIO
TITLE "End of the Age"
PERFORMER "Metal Church"
INDEX 00 42:22:37
INDEX 01 42:24:17
TRACK 10 AUDIO
TITLE "Lovers and Madmen"
PERFORMER "Metal Church"
INDEX 00 49:40:12
INDEX 01 49:41:10
TRACK 11 AUDIO
TITLE "A Subtle War"
PERFORMER "Metal Church"
INDEX 00 52:29:22
INDEX 01 52:32:25
TRACK 12 AUDIO
TITLE "Start the Fire (Live)"
PERFORMER "Metal Church"
INDEX 00 56:44:27
INDEX 01 56:45:50
TRACK 13 AUDIO
TITLE "Fake Healer (Live)"
PERFORMER "Metal Church"
INDEX 00 60:58:55
INDEX 01 61:02:57
TRACK 14 AUDIO
TITLE "Losers in the Game (Live)"
PERFORMER "Metal Church"
INDEX 00 66:25:55
INDEX 01 66:29:25

LOG
Exact Audio Copy V0.99 prebeta 5 from 4. May 2009

EAC extraction logfile from 24. April 2011, 16:38

Metal Church / Hanging In The Balance

Used drive : PIONEER DVD-RW DVR-116D Adapter: 0 ID: 0

Read mode : Secure
Utilize accurate stream : Yes
Defeat audio cache : Yes
Make use of C2 pointers : No

Read offset correction : 96
Overread into Lead-In and Lead-Out : No
Fill up missing offset samples with silence : Yes
Delete leading and trailing silent blocks : No
Null samples used in CRC calculations : Yes
Used interface : Native Win32 interface for Win NT & 2000

Used output format : User Defined Encoder
Selected bitrate : 32 kBit/s
Quality : High
Add ID3 tag : No
Command line compressor : C:\Program Files\Exact Audio Copy\Flac\flac.exe
Additional command line options : -6 -V %s


TOC of the extracted CD

Track | Start | Length | Start sector | End sector
---------------------------------------------------------
1 | 0:00.32 | 5:22.60 | 32 | 24241
2 | 5:23.17 | 5:08.18 | 24242 | 47359
3 | 10:31.35 | 4:43.10 | 47360 | 68594
4 | 15:14.45 | 3:57.55 | 68595 | 86424
5 | 19:12.25 | 5:48.22 | 86425 | 112546
6 | 25:00.47 | 4:09.60 | 112547 | 131281
7 | 29:10.32 | 8:13.38 | 131282 | 168294
8 | 37:23.70 | 5:00.22 | 168295 | 190816
9 | 42:24.17 | 7:16.68 | 190817 | 223584
10 | 49:41.10 | 2:51.15 | 223585 | 236424
11 | 52:32.25 | 4:13.25 | 236425 | 255424
12 | 56:45.50 | 4:17.07 | 255425 | 274706
13 | 61:02.57 | 5:26.43 | 274707 | 299199
14 | 66:29.25 | 5:05.27 | 299200 | 322101


Range status and errors

Selected range

Filename D:\Музыка\Lossless\Metal Church - Hanging In The balance (Limited Edition Digipack) (1993)\Metal Church - Hanging In The Balance.wav

Peak level 100.0 %
Range quality 99.9 %
Copy CRC 06173F39
Copy OK

No errors occurred


AccurateRip summary

Track 1 not present in database
Track 2 not present in database
Track 3 not present in database
Track 4 not present in database
Track 5 not present in database
Track 6 not present in database
Track 7 not present in database
Track 8 not present in database
Track 9 not present in database
Track 10 cannot be verified as accurate (confidence 1) [4AD50282], AccurateRip returned [A58BE6DE]
Track 11 cannot be verified as accurate (confidence 1) [7AFB6829], AccurateRip returned [11449AC6]
Track 12 not present in database
Track 13 not present in database
Track 14 not present in database

2 track(s) could not be verified as accurate
12 track(s) not present in the AccurateRip database

No tracks could be verified as accurate
You may have a different pressing from the one(s) in the database

End of status report

Spectrum
Image


Narod.Ru

Редкое издание, но впринципе 3 концертных трэка вряд ли представляют большой интерес. Скорее просто для коллекции. Картинки с фотика.
P.S. Диджипак пришёл малость убитый, так что могу продать рублей за 100 или пару бутылок пива :smile:


Top
 Profile E-mail  
 
 
PostPosted: 10 May 2011 
А может смените мне статус?..
User avatar
Joined: 24 Dec 2008
Posts: 621
Age: 44
Name: Дмитрий
:thanx:


Top
 Profile  
 
 
PostPosted: 10 May 2011 
Хиппей (support team)
User avatar
Joined: 30 Jul 2007
Posts: 108029
Lоcаtion: Киев (Kyiv, UA)
Age: 45
Name: Andrey
Ура! Димка, спасибо :true:

mirror: MultiUp l Narod

_________________


Top
 Profile E-mail  
 
 
PostPosted: 10 May 2011 
Прокъмитолист
User avatar
Joined: 12 Aug 2007
Posts: 6504
Lоcаtion: Санктъ-Петербуркъ
Age: 51
Name: Олекъ
church wrote:
Диджипак пришёл малость убитый

при пересылке "убили" или изначально такой был у продавца? :umnik:

_________________
прокъметол - это музыко, от которово есть прок (ы)


Top
 Profile  
 
 
PostPosted: 11 May 2011 
Работнечег
User avatar
Joined: 28 Aug 2007
Posts: 5511
Lоcаtion: г. Москва
Age: 29
Name: Дима
spiralarch wrote:
church wrote:
Диджипак пришёл малость убитый

при пересылке "убили" или изначально такой был у продавца? :umnik:

Сложно сказать. у продавца было написано very good и ни про какие дефекты речи не было, хотя описание на немецком и может я не заметил. Скорее при пересылке убили, потому что такое ощущение что на диске что-то тяжелое стояло. Ну не очень жалко, я его за 250 рублей выиграл :smile:


Top
 Profile E-mail  
 
 
PostPosted: 08 Nov 2011 
Power Metal Maniac
User avatar
Joined: 09 Aug 2008
Posts: 6352
Lоcаtion: Москва
Age: 40
Name: Егор
:thanx:

_________________
Long Live Metal!


Top
 Profile  
 
 
PostPosted: 21 Jan 2014 
\m/ 80 см сала \m/
User avatar
Joined: 12 Mar 2012
Posts: 2589
Age: 25
Name: Nick
:thanx:

_________________
1990 AUROPHON BRAINSTORM (Germany) - lossless
1994 MAUSOLEUM CLASSIX (Belgium-Germany) - lossless
1998 VA - GRIM HARVEST - Complete Metal Massacre Volumes I-XII


Top
 Profile  
 
 
PostPosted: 22 Jan 2014 
5-speed satisfactor
User avatar
Joined: 16 Feb 2009
Posts: 3619
Lоcаtion: New York, USA
Age: 40
Name: Leonid
3 live tracks взяты отсюда: http://www.metal-archives.com/albums/Me ... apan/83605

_________________
Death rules! Metal to all who oppose!


Top
 Profile  
 
 
PostPosted: 22 Jan 2014 
\m/ 80 см сала \m/
User avatar
Joined: 12 Mar 2012
Posts: 2589
Age: 25
Name: Nick
Ага, а ведь я надеялся на другой источник :fingal:

_________________
1990 AUROPHON BRAINSTORM (Germany) - lossless
1994 MAUSOLEUM CLASSIX (Belgium-Germany) - lossless
1998 VA - GRIM HARVEST - Complete Metal Massacre Volumes I-XII


Top
 Profile  
 
 
PostPosted: 22 Jan 2014 
Хиппей (support team)
User avatar
Joined: 30 Jul 2007
Posts: 108029
Lоcаtion: Киев (Kyiv, UA)
Age: 45
Name: Andrey
Ага, значит не из 80-х все же ливнички :dance:

_________________


Top
 Profile E-mail  
 
Display posts from previous:  Sort by  
Post new topic Reply to topic  [ 10 posts ] 

All times are UTC + 3 hours


Who is online

Users browsing this forum: No registered users and 1 guest


You cannot post new topics in this forum
You cannot reply to topics in this forum
You cannot edit your posts in this forum
You cannot delete your posts in this forum
You cannot post attachments in this forum

Search for:
Яндекс.Метрика
Powered by phpBB © 2000, 2002, 2005, 2007 phpBB Group