\m/ 80's metal \m/

Информационно-аналитический форум "80 см пыли" (In Search We Trust) "У нас никто никуда не спешит"
Me For You - http://me-4u.com
It is currently 17 Dec 2018

All times are UTC + 3 hours

Spoiler
Chat - temporary registration for foreign users (please leave your application here)







Post new topic Reply to topic  [ 18 posts ] 
Author Message
 
PostPosted: 30 Apr 2011 
Я набрал 1000 сообщений!
Joined: 12 Dec 2008
Posts: 1000
Lоcаtion: BULGARIA
Age: 40
Name: DIMITЪR
Medieval Steel - The Dungeon Tapes - 2005

Image

Style: Traditional Metal

Current line-up:
Bobby Franklin - Vocals
Scott Jones - Guitar, Keyboards
Steve Crocker - Bass
Chris Cook - Drums
Tracklist:
01 Eye's Of Fire
02 Ghost From The Battlefield
03 To Kill A King
04 Lost In The City
05 Tears In The Rain
06 Battle Beyond The Stars
07 Echoes
08 Warlords
09 Medieval Steel


Top
 Profile  
 
 
PostPosted: 30 Apr 2011 
Хиппей (support team)
User avatar
Joined: 30 Jul 2007
Posts: 108957
Lоcаtion: Киев (Kyiv, UA)
Age: 45
Name: Andrey
Был здесь :cow: http://moole.ru/blog/losi/news/38479-me ... -2005.html

_________________


Top
 Profile E-mail  
 
 
PostPosted: 30 Apr 2011 
Я набрал 1000 сообщений!
Joined: 12 Dec 2008
Posts: 1000
Lоcаtion: BULGARIA
Age: 40
Name: DIMITЪR
А откуда скачать ,ссьлкa где?


Top
 Profile  
 
 
PostPosted: 30 Apr 2011 
Хиппей (support team)
User avatar
Joined: 30 Jul 2007
Posts: 108957
Lоcаtion: Киев (Kyiv, UA)
Age: 45
Name: Andrey
Ссылка на доке. Но она уже просрочена :pardon:

_________________


Top
 Profile E-mail  
 
 
PostPosted: 30 Apr 2011 
Хиппей (support team)
User avatar
Joined: 30 Jul 2007
Posts: 108957
Lоcаtion: Киев (Kyiv, UA)
Age: 45
Name: Andrey
Попросил перезалить...

_________________


Top
 Profile E-mail  
 
 
PostPosted: 03 May 2011 
Хиппей (support team)
User avatar
Joined: 30 Jul 2007
Posts: 108957
Lоcаtion: Киев (Kyiv, UA)
Age: 45
Name: Andrey
Ура. Первым и пока единственным отреагировал наш Вовка Glot :true: :thanx:

Medieval Steel - 2005 - The Dungeon Tapes [flac]

Attachment:
Medieval Steel - The Dungeon Tapes - Front.jpg
Medieval Steel - The Dungeon Tapes - Front.jpg [ 396.68 KiB | Viewed 124 times ]

Attachment:
Medieval Steel - The Dungeon Tapes - Back.jpg
Medieval Steel - The Dungeon Tapes - Back.jpg [ 408.88 KiB | Viewed 107 times ]


MultiUp l Narod


log
EAC extraction logfile from 16. October 2008, 23:03 for CD
Medieval Steel / The Dungeon Tapes

Used drive : PIONEER DVD-RW DVR-111D Adapter: 5 ID: 0
Read mode : Secure with NO C2, accurate stream, disable cache
Read offset correction : 48
Overread into Lead-In and Lead-Out : No

Used output format : C:\Program Files\FLAC\flac.exe (User Defined Encoder)
320 kBit/s
Additional command line options : -V -8 -T "artist=%a" -T "title=%t" -T "album=%g" -T "date=%y" -T "tracknumber=%n" -T "genre=%m" %s

Other options :
Fill up missing offset samples with silence : Yes
Delete leading and trailing silent blocks : No
Native Win32 interface for Win NT & 2000


Track 1
Filename E:\Downloads\-=Rips=-\Medieval Steel - 2005 - The Dungeon Tapes [FLAC]\01 Eye's Of Fire.wav

Pre-gap length 0:00:02.00

Peak level 99.8 %
Track quality 100.0 %
Test CRC A3B90543
Copy CRC A3B90543
Copy OK

Track 2
Filename E:\Downloads\-=Rips=-\Medieval Steel - 2005 - The Dungeon Tapes [FLAC]\02 Ghost From The Battlefield.wav

Peak level 99.8 %
Track quality 100.0 %
Test CRC 6075714A
Copy CRC 6075714A
Copy OK

Track 3
Filename E:\Downloads\-=Rips=-\Medieval Steel - 2005 - The Dungeon Tapes [FLAC]\03 To Kill A King.wav

Peak level 99.8 %
Track quality 100.0 %
Test CRC 0D0C2B52
Copy CRC 0D0C2B52
Copy OK

Track 4
Filename E:\Downloads\-=Rips=-\Medieval Steel - 2005 - The Dungeon Tapes [FLAC]\04 Lost In The City.wav

Peak level 90.5 %
Track quality 100.0 %
Test CRC 4E59D439
Copy CRC 4E59D439
Copy OK

Track 5
Filename E:\Downloads\-=Rips=-\Medieval Steel - 2005 - The Dungeon Tapes [FLAC]\05 Tears In The Rain.wav

Peak level 94.0 %
Track quality 100.0 %
Test CRC 49EE6B5E
Copy CRC 49EE6B5E
Copy OK

Track 6
Filename E:\Downloads\-=Rips=-\Medieval Steel - 2005 - The Dungeon Tapes [FLAC]\06 Battle Beyond The Stars.wav

Peak level 99.9 %
Track quality 100.0 %
Test CRC 04FD3A3B
Copy CRC 04FD3A3B
Copy OK

Track 7
Filename E:\Downloads\-=Rips=-\Medieval Steel - 2005 - The Dungeon Tapes [FLAC]\07 Echoes.wav

Peak level 99.9 %
Track quality 100.0 %
Test CRC 7E0D4D70
Copy CRC 7E0D4D70
Copy OK

Track 8
Filename E:\Downloads\-=Rips=-\Medieval Steel - 2005 - The Dungeon Tapes [FLAC]\08 Warlords.wav

Peak level 99.9 %
Track quality 100.0 %
Test CRC 65A9BB05
Copy CRC 65A9BB05
Copy OK

Track 9
Filename E:\Downloads\-=Rips=-\Medieval Steel - 2005 - The Dungeon Tapes [FLAC]\09 Medieval Steel.wav

Peak level 99.9 %
Track quality 100.0 %
Test CRC 7C41066E
Copy CRC 7C41066E
Copy OK

No errors occured


End of status report


cue
REM GENRE Heavy Metal
REM DATE 2005
PERFORMER "Medieval Steel"
TITLE "The Dungeon Tapes"
FILE "Medieval Steel - 2005 - The Dungeon Tapes.flac" WAVE
TRACK 01 AUDIO
TITLE "Eye's Of Fire"
INDEX 01 00:00:00
TRACK 02 AUDIO
TITLE "Ghost From The Battlefield"
INDEX 01 03:33:70
TRACK 03 AUDIO
TITLE "To Kill A King"
INDEX 01 07:23:20
TRACK 04 AUDIO
TITLE "Lost In The City"
INDEX 01 11:33:42
TRACK 05 AUDIO
TITLE "Tears In The Rain"
INDEX 01 14:32:20
TRACK 06 AUDIO
TITLE "Battle Beyond The Stars"
INDEX 01 19:47:07
TRACK 07 AUDIO
TITLE "Echoes"
INDEX 01 24:01:40
TRACK 08 AUDIO
TITLE "Warlords"
INDEX 01 27:58:60
TRACK 09 AUDIO
TITLE "Medieval Steel"
INDEX 01 31:32:60


Спасибо за предоставленный рип Валере aka Silkiron :thanx:

_________________


Top
 Profile E-mail  
 
 
PostPosted: 03 May 2011 
Доктор энтомологии
User avatar
Joined: 22 Jan 2009
Posts: 9490
Lоcаtion: Даугавпилс
Age: 43
Name: Алексей
Scatterbrain wrote:
Ура.

[url=http://narod.ru/disk/11741414001/Medieval%20Steel%20(US).rar.html]Narod[/url]


:cry: :dash:


Top
 Profile  
 
 
PostPosted: 03 May 2011 
Хиппей (support team)
User avatar
Joined: 30 Jul 2007
Posts: 108957
Lоcаtion: Киев (Kyiv, UA)
Age: 45
Name: Andrey
Лёш, Мозилла это хорошо, но не всегда :crazy:
Просто кликни по названию Narod в сообщении выше :pardon:

зы. Перезаливаю на Мультик еще...

_________________


Top
 Profile E-mail  
 
 
PostPosted: 03 May 2011 
Я набрал 1000 сообщений!
Joined: 12 Dec 2008
Posts: 1000
Lоcаtion: BULGARIA
Age: 40
Name: DIMITЪR
Спасибо большое за классньй альбом!!!! :true:


Top
 Profile  
 
 
PostPosted: 03 May 2011 
хард н хэвщик (support team)
User avatar
Joined: 02 Jun 2008
Posts: 16880
Lоcаtion: Н.Новгород
Age: 31
Name: Артем
Scatterbrain wrote:
Лёш, Мозилла это хорошо, но не всегда :crazy:
мне кажется, он просто хотел сказать, что в Латвии довольно геморрно качать с народа, поэтому выделил слово narod пожирнее :oops:


Top
 Profile  
 
 
PostPosted: 03 May 2011 
Доктор энтомологии
User avatar
Joined: 22 Jan 2009
Posts: 9490
Lоcаtion: Даугавпилс
Age: 43
Name: Алексей
McKagan wrote:
Scatterbrain wrote:
Лёш, Мозилла это хорошо, но не всегда :crazy:
мне кажется, он просто хотел сказать, что в Латвии довольно геморрно качать с народа, поэтому выделил слово narod пожирнее :oops:

:oops: именно так Артём... Увольте, я и не настаиваю чтобы перезалили :thanx: на другой обменник, не умру от нетерпения или чего там бы то ни было. Музыки всякой много :pardon:


Top
 Profile  
 
 
PostPosted: 03 May 2011 
Хиппей (support team)
User avatar
Joined: 30 Jul 2007
Posts: 108957
Lоcаtion: Киев (Kyiv, UA)
Age: 45
Name: Andrey
McKagan wrote:
мне кажется, он просто хотел сказать, что в Латвии довольно геморрно качать с народа

Так это давно известно, что кроме как из России качать оттуда жуть как медленно, сам еле стянул на скорости 8-10 кб, но и на том спасибо. Чуть выше ссылка на Мультик, как обычно и дублирую :dance:
Entomologist wrote:
я и не настаиваю чтобы перезалили

А вот и фиг там, именно что надо просить перезалить, если чем-то не устраивает обменник. Я для того здесь и сижу, например. Перебрасываю файлы туда-сюда, как муравей мух :bibika:

зы. Запасная ссылка на Народ, ибо Вовка за своей вряд ли будет следить, он свою миссию и так выполнил :pardon:

Narod

_________________


Top
 Profile E-mail  
 
 
PostPosted: 03 May 2011 
Доктор энтомологии
User avatar
Joined: 22 Jan 2009
Posts: 9490
Lоcаtion: Даугавпилс
Age: 43
Name: Алексей
Спасибо Вовке за заботы :thanx: Если очень будет надо, я обязательно порпошу :thanx:


Top
 Profile  
 
 
PostPosted: 04 May 2011 
Прокъмитолист
User avatar
Joined: 12 Aug 2007
Posts: 6514
Lоcаtion: Санктъ-Петербуркъ
Age: 51
Name: Олекъ
Scatterbrain wrote:
Спасибо за предоставленный рип Игорю aka Silkiron

:dash: Silkiron - он Валера :cow:

_________________
прокъметол - это музыко, от которово есть прок (ы)


Top
 Profile  
 
 
PostPosted: 04 May 2011 
Хиппей (support team)
User avatar
Joined: 30 Jul 2007
Posts: 108957
Lоcаtion: Киев (Kyiv, UA)
Age: 45
Name: Andrey
spiralarch wrote:
Silkiron - он Валера

... ну я и Вася... :dash:
Извиняюсь, спутал снова :pardon:

_________________


Top
 Profile E-mail  
 
 
PostPosted: 04 Sep 2011 
Зарегился вот...
Joined: 04 Sep 2011
Posts: 1
Lоcаtion: Moscow
Name: Владимир
Не мог бы кто скинуть последнюю песню с альбома в lossless формате на какой-нибудь файлообменник? Был бы очень признателен.


Top
 Profile E-mail  
 
 
PostPosted: 04 Sep 2011 
Хиппей (support team)
User avatar
Joined: 30 Jul 2007
Posts: 108957
Lоcаtion: Киев (Kyiv, UA)
Age: 45
Name: Andrey
Владимир wrote:
Откудa: Moscow

Ээмм... интырнет дряблый? :oops:
У меня лося на винте щас нету, и понятие не имею, как от него кусок отрезать :fingal:
А зачем вообще нужен именно последний трэк? :shok:

_________________


Top
 Profile E-mail  
 
 
PostPosted: 05 Sep 2011 
:dance: thanks


Top
  
 
Display posts from previous:  Sort by  
Post new topic Reply to topic  [ 18 posts ] 

All times are UTC + 3 hours


Who is online

Users browsing this forum: No registered users and 4 guests


You cannot post new topics in this forum
You cannot reply to topics in this forum
You cannot edit your posts in this forum
You cannot delete your posts in this forum
You cannot post attachments in this forum

Search for:
Яндекс.Метрика
cron
Powered by phpBB © 2000, 2002, 2005, 2007 phpBB Group