\m/ 80's metal \m/

Информационно-аналитический форум "80 см пыли" (In Search We Trust) "У нас никто никуда не спешит"
Me For You - http://me-4u.com
It is currently 22 Sep 2018

All times are UTC + 3 hours

Spoiler
Chat - temporary registration for foreign users (please leave your application here)







Post new topic Reply to topic  [ 8 posts ] 
Author Message
 
PostPosted: 13 Mar 2011 
Персональный статус
User avatar
Joined: 02 Feb 2009
Posts: 236
Lоcаtion: Тульская область
Age: 52
Name: Владимир
Mastermind - 2006 - From Here To Eternity (BLRC-00013)

Image

Стиль: Heavy/Power Metal
Качество: APE (image +.cue), log, covers.
Размер: 316 Mb (+3%)
Страна: Japan (Tokyo)
Источник: Собственный диск


Состав

Norio Sato — Vocals
Yoshiya Sato — Guitar (Bravestaker)
Yoshiyuki Watarai — Guitar (Inspire)
Naoyuki Hasegawa — Bass
Shinichi Kojima — Drums


Треклист

1. On the Rise 02:28
2. Phoenix Rising 05:20
3. Back from the Edge 05:21
4. Nothing Lasts Forever 05:01
5. No Doubt 04:22
6. Remembrance 01:31
7. Holding My Dreams 06:37
8. Cold-Hearted 04:54
9. Heroes 05:03
Total playing time 40:37


Narod APE
Mirror

Log
Exact Audio Copy V0.99 prebeta 5 from 4. May 2009

EAC extraction logfile from 12. March 2011, 19:44

Mastermind / From Here to Eternity

Used drive : PIONEER DVD-RW DVR-218L Adapter: 4 ID: 1

Read mode : Secure
Utilize accurate stream : Yes
Defeat audio cache : Yes
Make use of C2 pointers : No

Read offset correction : 6
Overread into Lead-In and Lead-Out : No
Fill up missing offset samples with silence : Yes
Delete leading and trailing silent blocks : No
Null samples used in CRC calculations : Yes
Used interface : Installed external ASPI interface

Used output format : Internal WAV Routines
Sample format : 44.100 Hz; 16 Bit; Stereo


TOC of the extracted CD

Track | Start | Length | Start sector | End sector
---------------------------------------------------------
1 | 0:00.00 | 2:28.17 | 0 | 11116
2 | 2:28.17 | 5:19.51 | 11117 | 35092
3 | 7:47.68 | 5:21.00 | 35093 | 59167
4 | 13:08.68 | 5:00.57 | 59168 | 81724
5 | 18:09.50 | 4:21.52 | 81725 | 101351
6 | 22:31.27 | 1:30.66 | 101352 | 108167
7 | 24:02.18 | 6:36.65 | 108168 | 137932
8 | 30:39.08 | 4:53.60 | 137933 | 159967
9 | 35:32.68 | 5:02.56 | 159968 | 182673


Range status and errors

Selected range

Filename C:\Music MP3\Mastermind - From Here to Eternity.wav

Peak level 100.0 %
Range quality 100.0 %
Copy CRC AE3AFBEE
Copy OK

No errors occurred


AccurateRip summary

Track 1 not present in database
Track 2 not present in database
Track 3 not present in database
Track 4 not present in database
Track 5 not present in database
Track 6 not present in database
Track 7 not present in database
Track 8 not present in database
Track 9 not present in database

None of the tracks are present in the AccurateRip database

End of status report


Cue
REM GENRE Metal
REM DATE 2006
REM DISCID 67098309
REM COMMENT "ExactAudioCopy v0.99pb5"
PERFORMER "Mastermind"
TITLE "From Here to Eternity"
FILE "Mastermind - From Here to Eternity.ape" WAVE
TRACK 01 AUDIO
TITLE "On The Rise"
PERFORMER "Mastermind"
INDEX 01 00:00:00
TRACK 02 AUDIO
TITLE "Phoenix Rising"
PERFORMER "Mastermind"
INDEX 01 02:28:17
TRACK 03 AUDIO
TITLE "Back from the edge"
PERFORMER "Mastermind"
INDEX 00 07:47:32
INDEX 01 07:47:68
TRACK 04 AUDIO
TITLE "Nothing lasts forever"
PERFORMER "Mastermind"
INDEX 00 13:06:56
INDEX 01 13:08:68
TRACK 05 AUDIO
TITLE "No Doubt"
PERFORMER "Mastermind"
INDEX 00 18:07:36
INDEX 01 18:09:50
TRACK 06 AUDIO
TITLE "Rememberance"
PERFORMER "Mastermind"
INDEX 00 22:29:33
INDEX 01 22:31:27
TRACK 07 AUDIO
TITLE "Holding My Dreams"
PERFORMER "Mastermind"
INDEX 01 24:02:18
TRACK 08 AUDIO
TITLE "Cold Hearted"
PERFORMER "Mastermind"
INDEX 00 30:36:59
INDEX 01 30:39:08
TRACK 09 AUDIO
TITLE "Heroes"
PERFORMER "Mastermind"
INDEX 00 35:30:30
INDEX 01 35:32:68

_________________
http://img254.imageshack.us/img254/1015 ... 743574.gif
http://img140.imageshack.us/img140/7192 ... arlogo.jpg


Last edited by crimson22 on 16 Mar 2011, edited 1 time in total.

Top
 Profile  
 
 
PostPosted: 13 Mar 2011 
А может смените мне статус?..
User avatar
Joined: 02 Feb 2009
Posts: 997
Lоcаtion: из Тулы
Age: 44
Name: Максим
круть :true:

_________________
КМА


Top
 Profile  
 
 
PostPosted: 13 Mar 2011 
Прокъмитолист
User avatar
Joined: 12 Aug 2007
Posts: 6471
Lоcаtion: Санктъ-Петербуркъ
Age: 50
Name: Олекъ
overkiller wrote:
круть :true:

плюсадин :thanx:

_________________
прокъметол - это музыко, от которово есть прок (ы)


Top
 Profile  
 
 
PostPosted: 13 Mar 2011 
Пионэръ
Joined: 27 Aug 2010
Posts: 10
Lоcаtion: England
Name: Ken
спасибо :thanx:


Top
 Profile E-mail  
 
 
PostPosted: 14 Mar 2011 
Я набрал 1000 сообщений!
User avatar
Joined: 25 Dec 2008
Posts: 1545
Age: 43
Name: Павел
Владимир,спасибо большое! :true:


Top
 Profile  
 
 
PostPosted: 14 Mar 2011 
Хиппей (support team)
User avatar
Joined: 30 Jul 2007
Posts: 106427
Lоcаtion: Киев (Kyiv, UA)
Age: 45
Name: Andrey
:thanx:

mirror: http://www.multiupload.com/3YAKCZKE2T

_________________


Top
 Profile E-mail  
 
 
PostPosted: 16 Mar 2011 
Power Metal Maniac
User avatar
Joined: 09 Aug 2008
Posts: 6299
Lоcаtion: Москва
Age: 40
Name: Егор
:thanx:

_________________
Long Live Metal!


Top
 Profile  
 
 
PostPosted: 25 Mar 2011 
Хиппей (support team)
User avatar
Joined: 30 Jul 2007
Posts: 106427
Lоcаtion: Киев (Kyiv, UA)
Age: 45
Name: Andrey
Speed Heavy/Power - модный звук, но за неделю ежедневного прослушивая альбома - уже привык к нему. И это хорошо.
Шрэдовая гитара - да, очень впечатляют соло-запилы, и самое главное - они всегда и везде здесь уместны. Радуют до приятной дрожи в подмышках акустические вставки на соло-гитаре. Хм, или соло-гитарная акустика.
В сравнение с дебютником на этом релизе вокал уже звучит нааамного трушнее и приятнее, особенно вариант с хрипловатым оттенком, как у Роберта Планта или Ленни Вульфа. На крайняк Том Кейфир - обожаю такой голос. Правда японец этим не злоупотребляет, за что ему и респект, и уважуха, и даже шаровары бы подарил свои.
"Бек фром зе едже оф зе ворлд" - бэст трэк :true:

8/10

_________________


Top
 Profile E-mail  
 
Display posts from previous:  Sort by  
Post new topic Reply to topic  [ 8 posts ] 

All times are UTC + 3 hours


Who is online

Users browsing this forum: No registered users and 2 guests


You cannot post new topics in this forum
You cannot reply to topics in this forum
You cannot edit your posts in this forum
You cannot delete your posts in this forum
You cannot post attachments in this forum

Search for:
Яндекс.Метрика
Powered by phpBB © 2000, 2002, 2005, 2007 phpBB Group