\m/ 80's metal \m/

Информационно-аналитический форум "80 см пыли" (In Search We Trust) "У нас никто никуда не спешит"
Me For You - http://me-4u.com
It is currently 15 Nov 2018

All times are UTC + 3 hours

Spoiler
Chat - temporary registration for foreign users (please leave your application here)







Post new topic Reply to topic  [ 9 posts ] 
Author Message
 
PostPosted: 13 Mar 2011 
Персональный статус
User avatar
Joined: 02 Feb 2009
Posts: 236
Lоcаtion: Тульская область
Age: 52
Name: Владимир
Mastermind - 2000 - Song for the New World (BLRC-00001) (Remastered 2004)

Image

Стиль: Heavy/Power Metal
Качество: APE (image +.cue), log, covers.
Размер: 442 Mb (+3%)
Страна: Japan (Tokyo)
Источник: Собственный диск


Состав

Norio Sato — Vocals
Yoshiya Sato — Guitar (Bravestaker)
Yoshiyuki Watarai — Guitar (Inspire)
Naoyuki Hasegawa — Bass
Shinichi Kojima — Drums


Треклист

1. Departure
2. Say Your Prayer
3. Hold On
4. Wanderer
5. Note Of Glory
6. The Landscape
7. Nothing Lasts Forever
8. Run For Your Life
9. End Of Dreams
10. Wanderer(demo)
11. Run For Your Life(demo)


Narod APE


Log
Exact Audio Copy V0.99 prebeta 5 from 4. May 2009

EAC extraction logfile from 12. March 2011, 16:48

Mastermind / Song For The New World

Used drive : PIONEER DVD-RW DVR-218L Adapter: 4 ID: 1

Read mode : Secure
Utilize accurate stream : Yes
Defeat audio cache : Yes
Make use of C2 pointers : No

Read offset correction : 6
Overread into Lead-In and Lead-Out : No
Fill up missing offset samples with silence : Yes
Delete leading and trailing silent blocks : No
Null samples used in CRC calculations : Yes
Used interface : Installed external ASPI interface

Used output format : Internal WAV Routines
Sample format : 44.100 Hz; 16 Bit; Stereo


TOC of the extracted CD

Track | Start | Length | Start sector | End sector
---------------------------------------------------------
1 | 0:00.00 | 1:02.38 | 0 | 4687
2 | 1:02.38 | 5:05.00 | 4688 | 27562
3 | 6:07.38 | 4:20.54 | 27563 | 47116
4 | 10:28.17 | 6:00.48 | 47117 | 74164
5 | 16:28.65 | 5:37.00 | 74165 | 99439
6 | 22:05.65 | 6:37.51 | 99440 | 129265
7 | 28:43.41 | 5:38.50 | 129266 | 154665
8 | 34:22.16 | 5:22.47 | 154666 | 178862
9 | 39:44.63 | 5:45.73 | 178863 | 204810
10 | 45:30.61 | 6:26.60 | 204811 | 233820
11 | 51:57.46 | 4:44.23 | 233821 | 255143


Range status and errors

Selected range

Filename C:\Music MP3\Mastermind - Song For The New World.wav

Peak level 99.5 %
Range quality 100.0 %
Copy CRC 44F619F9
Copy OK

No errors occurred


AccurateRip summary

Track 1 not present in database
Track 2 not present in database
Track 3 not present in database
Track 4 not present in database
Track 5 not present in database
Track 6 not present in database
Track 7 not present in database
Track 8 not present in database
Track 9 not present in database
Track 10 not present in database
Track 11 not present in database

None of the tracks are present in the AccurateRip database

End of status report


Cue
REM GENRE Metal
REM DATE 2000
REM DISCID 900D490B
REM COMMENT "ExactAudioCopy v0.99pb5"
PERFORMER "Mastermind"
TITLE "Song For The New World"
FILE "Mastermind - Song For The New World.ape" WAVE
TRACK 01 AUDIO
TITLE "Departure"
PERFORMER "Mastermind"
INDEX 01 00:00:00
TRACK 02 AUDIO
TITLE "Say Your Prayer"
PERFORMER "Mastermind"
INDEX 01 01:02:38
TRACK 03 AUDIO
TITLE "Hold On"
PERFORMER "Mastermind"
INDEX 01 06:07:38
TRACK 04 AUDIO
TITLE "Wanderer"
PERFORMER "Mastermind"
INDEX 01 10:28:17
TRACK 05 AUDIO
TITLE "Note of Glory"
PERFORMER "Mastermind"
INDEX 01 16:28:65
TRACK 06 AUDIO
TITLE "The Landscape"
PERFORMER "Mastermind"
INDEX 00 22:04:44
INDEX 01 22:05:65
TRACK 07 AUDIO
TITLE "Nothing Lasts Forever"
PERFORMER "Mastermind"
INDEX 01 28:43:41
TRACK 08 AUDIO
TITLE "Run for Your Life"
PERFORMER "Mastermind"
INDEX 01 34:22:16
TRACK 09 AUDIO
TITLE "To Eternity"
PERFORMER "Mastermind"
INDEX 00 39:43:65
INDEX 01 39:44:63
TRACK 10 AUDIO
TITLE "Wanderer (Demo)"
PERFORMER "Mastermind"
INDEX 00 45:22:16
INDEX 01 45:30:61
TRACK 11 AUDIO
TITLE "Run for Your Life (Demo)"
PERFORMER "Mastermind"
INDEX 00 51:56:51
INDEX 01 51:57:46


Ремастированная версия альбома 2000 года включила в себя два бонус трека с ранних демо и куда-то потеряла мою любимую песню Never Say Never

_________________
http://img254.imageshack.us/img254/1015 ... 743574.gif
http://img140.imageshack.us/img140/7192 ... arlogo.jpg


Top
 Profile  
 
 
PostPosted: 13 Mar 2011 
А может смените мне статус?..
User avatar
Joined: 02 Feb 2009
Posts: 999
Lоcаtion: из Тулы
Age: 44
Name: Максим
:true: :losik:

_________________
КМА


Top
 Profile  
 
 
PostPosted: 13 Mar 2011 
Прокъмитолист
User avatar
Joined: 12 Aug 2007
Posts: 6503
Lоcаtion: Санктъ-Петербуркъ
Age: 51
Name: Олекъ
я вчера уже где-то спасибнул :umnik: ну и еще раз не помешает :thanx:

_________________
прокъметол - это музыко, от которово есть прок (ы)


Top
 Profile  
 
 
PostPosted: 13 Mar 2011 
Пионэръ
Joined: 27 Aug 2010
Posts: 10
Lоcаtion: England
Name: Ken
спасибо!


Top
 Profile E-mail  
 
 
PostPosted: 14 Mar 2011 
Я набрал 1000 сообщений!
User avatar
Joined: 25 Dec 2008
Posts: 1545
Age: 43
Name: Павел
И еще раз спасибо! :true:


Top
 Profile  
 
 
PostPosted: 14 Mar 2011 
Хиппей (support team)
User avatar
Joined: 30 Jul 2007
Posts: 108005
Lоcаtion: Киев (Kyiv, UA)
Age: 45
Name: Andrey
:thanx:

mirror: http://www.multiupload.com/L9XSWCPZ4Z

_________________


Top
 Profile E-mail  
 
 
PostPosted: 25 Mar 2011 
Хиппей (support team)
User avatar
Joined: 30 Jul 2007
Posts: 108005
Lоcаtion: Киев (Kyiv, UA)
Age: 45
Name: Andrey
Speed Heavy/Power - модный звук, но за неделю ежедневного прослушивая альбома уже привык к нему. И это хорошо.
Шрэдовая гитара - да, очень впечатляют соло-запилы, и самое главное - они всегда и везде здесь уместны. А акустические мелодии просто бесподобны и радуют своей простотой и скромностью, тем не менее, западают в душу (явно дамам - в декольте).
Слишком много фальцета в вокальных партиях солиста. Но за недельку попривык и к нему, сейчас уже не режут ухи его визги (вернее заползания в верха).
Альбом сыроват, но собственное лицо уже просматривается. Да, оно узкоглазое.
Вокалист - чувствуется, что японец - не пойму как определил :crazy: , но что-то такое общее, типа неповторимого акцента, роднит все японские хэви-мэтал группы.

6/10

_________________


Top
 Profile E-mail  
 
 
PostPosted: 17 Nov 2011 
Power Metal Maniac
User avatar
Joined: 09 Aug 2008
Posts: 6351
Lоcаtion: Москва
Age: 40
Name: Егор
:thanx:

_________________
Long Live Metal!


Top
 Profile  
 
 
PostPosted: 18 Nov 2011 
Пионэръ
Joined: 25 Aug 2011
Posts: 48
Lоcаtion: Worl
Name: Zoltan Tivesko
:thanx:


Top
 Profile E-mail  
 
Display posts from previous:  Sort by  
Post new topic Reply to topic  [ 9 posts ] 

All times are UTC + 3 hours


Who is online

Users browsing this forum: No registered users and 4 guests


You cannot post new topics in this forum
You cannot reply to topics in this forum
You cannot edit your posts in this forum
You cannot delete your posts in this forum
You cannot post attachments in this forum

Search for:
Яндекс.Метрика
Powered by phpBB © 2000, 2002, 2005, 2007 phpBB Group