\m/ 80's metal \m/

Информационно-аналитический форум "80 см пыли" (In Search We Trust) "У нас никто никуда не спешит"
Me For You - http://me-4u.com
It is currently 18 Sep 2018

All times are UTC + 3 hours

Spoiler
Chat - temporary registration for foreign users (please leave your application here)







Post new topic Reply to topic  [ 9 posts ] 
Author Message
 
PostPosted: 26 Feb 2011 
Работнечег
User avatar
Joined: 28 Aug 2007
Posts: 5409
Lоcаtion: г. Москва
Age: 29
Name: Дима
Image

Band: Mercy
Album: Victory March
Year: 2003
Label: TPL Records
Genre: Heavy Metal
Coutry: Sweden
Format: Flac + Log + Cue + Covers
Size: 265 Mb

Line-Up:
Andrija Veljaca (aka Andree Witchking/Yandriya Weechking)) - Guitars (Horoscope) - R.I.P. 25/8/05
Anders Strengberg - Vocals (Sacrifice (Swe), Metal Muthas)
Roger Johansson - Guitars, Bass (Faith)
Johan Norell - Drums


Tracklist:
1. City Nights 04:29
2. Nymphomania 04:38
3. Battle Hymn 04:45
4. Proud Master 03:45
5. Black Death 06:50
6. Rage Out Of Control 03:49
7. Subconsciousness 04:00
8. Mercy 07:04
9. Bangers Of Destruction 04:55
Total playing time 44:15

This album was recorded originally between December 1987 and January 1988 but
never was released till 2003 under TPL Records.


LOG
Exact Audio Copy V0.99 prebeta 5 from 4. May 2009

EAC extraction logfile from 24. February 2011, 13:24

Mercy / Victory March

Used drive : PIONEER DVD-RW DVR-116D Adapter: 0 ID: 0

Read mode : Secure
Utilize accurate stream : Yes
Defeat audio cache : Yes
Make use of C2 pointers : No

Read offset correction : 96
Overread into Lead-In and Lead-Out : No
Fill up missing offset samples with silence : Yes
Delete leading and trailing silent blocks : No
Null samples used in CRC calculations : Yes
Used interface : Native Win32 interface for Win NT & 2000

Used output format : User Defined Encoder
Selected bitrate : 32 kBit/s
Quality : High
Add ID3 tag : No
Command line compressor : C:\Program Files\Exact Audio Copy\Flac\flac.exe
Additional command line options : -6 -V %s


TOC of the extracted CD

Track | Start | Length | Start sector | End sector
---------------------------------------------------------
1 | 0:00.00 | 4:29.49 | 0 | 20223
2 | 4:29.49 | 4:38.08 | 20224 | 41081
3 | 9:07.57 | 4:45.28 | 41082 | 62484
4 | 13:53.10 | 3:45.59 | 62485 | 79418
5 | 17:38.69 | 6:50.35 | 79419 | 110203
6 | 24:29.29 | 3:49.07 | 110204 | 127385
7 | 28:18.36 | 3:59.70 | 127386 | 145380
8 | 32:18.31 | 7:03.73 | 145381 | 177178
9 | 39:22.29 | 4:55.22 | 177179 | 199325


Range status and errors

Selected range

Filename D:\Музыка\Lossless\Mercy - Victory March (2003)\Mercy - Victory March.wav

Peak level 70.8 %
Range quality 99.9 %
Copy CRC 9428FDB4
Copy OK

No errors occurred


AccurateRip summary

Track 1 not present in database
Track 2 not present in database
Track 3 not present in database
Track 4 not present in database
Track 5 not present in database
Track 6 not present in database
Track 7 not present in database
Track 8 not present in database
Track 9 not present in database

None of the tracks are present in the AccurateRip database

End of status report

CUE
REM GENRE "Doom Metal"
REM DATE 2003
REM DISCID 670A6109
REM COMMENT "ExactAudioCopy v0.99pb5"
PERFORMER "Mercy"
TITLE "Victory March"
FILE "Mercy - Victory March.flac" WAVE
TRACK 01 AUDIO
TITLE "City Nights"
PERFORMER "Mercy"
INDEX 01 00:00:00
TRACK 02 AUDIO
TITLE "Nymphomania"
PERFORMER "Mercy"
INDEX 00 04:27:49
INDEX 01 04:29:49
TRACK 03 AUDIO
TITLE "Battle Hymn"
PERFORMER "Mercy"
INDEX 00 09:05:57
INDEX 01 09:07:57
TRACK 04 AUDIO
TITLE "Proud Master"
PERFORMER "Mercy"
INDEX 00 13:51:10
INDEX 01 13:53:10
TRACK 05 AUDIO
TITLE "Black Death"
PERFORMER "Mercy"
INDEX 00 17:36:69
INDEX 01 17:38:69
TRACK 06 AUDIO
TITLE "Rage Out Of Control"
PERFORMER "Mercy"
INDEX 00 24:27:29
INDEX 01 24:29:29
TRACK 07 AUDIO
TITLE "Subconsciousness"
PERFORMER "Mercy"
INDEX 00 28:16:36
INDEX 01 28:18:36
TRACK 08 AUDIO
TITLE "Mercy"
PERFORMER "Mercy"
INDEX 00 32:16:31
INDEX 01 32:18:31
TRACK 09 AUDIO
TITLE "Bangers Of Destruction"
PERFORMER "Mercy"
INDEX 00 39:20:29
INDEX 01 39:22:29

Spectrum
Image


Ifolder.Ru

Обрез на 16 кГц, тау аналайзер есстесственно выдал, что это Mpeg. Я это связываю с тем, что альбом записывался давно и в то время не вышел и возможно нормальных исходников не осталось. Пиковый уровень тож 70,8 процентов, что есть мало. Но звук впринципе норм, может немного глуховат и в двух местах частотки попрыгивают.
По музыке вполне крепкий альбом, на дум тут кактит только одна песня Black Death, остальное чистый хэви, имхо. Вообщем мне довольно-таки понравилось. Напомню, что в этой банде засветился Messiah Marcolin из Candlemass.


Top
 Profile E-mail  
 
 
PostPosted: 26 Feb 2011 
Прокъмитолист
User avatar
Joined: 12 Aug 2007
Posts: 6468
Lоcаtion: Санктъ-Петербуркъ
Age: 50
Name: Олекъ
спасибо, Дим! нет такого лосика, заберу :thanx:

_________________
прокъметол - это музыко, от которово есть прок (ы)


Top
 Profile  
 
 
PostPosted: 26 Feb 2011 
спирт 100%
User avatar
Joined: 22 Sep 2008
Posts: 4275
Age: 47
Name: Саня
Дим,Спасибо! :thanx:


Top
 Profile  
 
 
PostPosted: 27 Feb 2011 
Хиппей (support team)
User avatar
Joined: 30 Jul 2007
Posts: 106301
Lоcаtion: Киев (Kyiv, UA)
Age: 45
Name: Andrey
:thanx:
И всё ж это классик-дум :oops:

Хотя, нужно будет переслушать...

mirror: MultiUp l Narod

_________________


Top
 Profile E-mail  
 
 
PostPosted: 29 Apr 2011 
Power Metal Maniac
User avatar
Joined: 09 Aug 2008
Posts: 6296
Lоcаtion: Москва
Age: 40
Name: Егор
есть такая болванка, думал, что с MP3 мне всучили. Значит, искать запись с полноценным спектром бесполезно.

_________________
Long Live Metal!


Top
 Profile  
 
 
PostPosted: 29 Apr 2011 
Доктор энтомологии
User avatar
Joined: 22 Jan 2009
Posts: 9315
Lоcаtion: Даугавпилс
Age: 43
Name: Алексей
Ух ты, не слушал этот альбум :thanx: только с марколином записи заценивал :oops: (84 уж больно хорош)


Top
 Profile  
 
 
PostPosted: 21 Nov 2012 
5-speed satisfactor
User avatar
Joined: 16 Feb 2009
Posts: 3553
Lоcаtion: New York, USA
Age: 40
Name: Leonid
Мона перезалить?

_________________
Death rules! Metal to all who oppose!


Top
 Profile  
 
 
PostPosted: 21 Nov 2012 
Работнечег
User avatar
Joined: 28 Aug 2007
Posts: 5409
Lоcаtion: г. Москва
Age: 29
Name: Дима
Мона перезалить?

Новая ссылка в первом посте. Народ, к сожалению, всё также не работает, поэтому пришлось вернуться к ипапке, надеюсь будет удобно для большинства.


Top
 Profile E-mail  
 
 
PostPosted: 21 Nov 2012 
5-speed satisfactor
User avatar
Joined: 16 Feb 2009
Posts: 3553
Lоcаtion: New York, USA
Age: 40
Name: Leonid
:thanx: качаю.

_________________
Death rules! Metal to all who oppose!


Top
 Profile  
 
Display posts from previous:  Sort by  
Post new topic Reply to topic  [ 9 posts ] 

All times are UTC + 3 hours


Who is online

Users browsing this forum: No registered users and 3 guests


You cannot post new topics in this forum
You cannot reply to topics in this forum
You cannot edit your posts in this forum
You cannot delete your posts in this forum
You cannot post attachments in this forum

Search for:
Яндекс.Метрика
Powered by phpBB © 2000, 2002, 2005, 2007 phpBB Group