\m/ 80's metal \m/

Информационно-аналитический форум "80 см пыли" (In Search We Trust) "У нас никто никуда не спешит"
Me For You - http://me-4u.com
It is currently 22 Sep 2018

All times are UTC + 3 hours

Spoiler
Chat - temporary registration for foreign users (please leave your application here)







Post new topic Reply to topic  [ 6 posts ] 
Author Message
 
PostPosted: 20 Feb 2011 
Персональный статус
User avatar
Joined: 02 Feb 2009
Posts: 236
Lоcаtion: Тульская область
Age: 52
Name: Владимир
* Перезалейте, пожалуйста: | Re-up please:
covers


Mastermind - 2001 - The Way I Go (PCCY-01547)

Image

Стиль: Heavy/Power Metal
Качество: FLAC (image +.cue), log, covers.
Размер: 437 Mb (+3%) + 41,5 Mb
Страна: Japan (Tokyo)
Источник: Собственный диск


Состав

Norio Sato — Vocals
Yoshiya Sato — Guitar (Bravestaker)
Yoshiyuki Watarai — Guitar (Inspire)
Naoyuki Hasegawa — Bass
Shinichi Kojima — Drums


Треклист

1. The Way I Go 06:00
2. Tell Me Why 04:37
3. Dusty Road 05:03
4. No Way Out 03:21
5. Fire in Your Heart 06:11
6. The Ancient Dream (instrumental) 05:44
7. Fight to Survive 04:59
8. Don't Look Away 06:16
9. Reach Out for You 06:43
10. Never Say Never 05:33
11. Back Against the Wall 05:47
Total playing time 01:00:14


Narod APE
Narod covers


Log
Exact Audio Copy V0.99 prebeta 5 from 4. May 2009

EAC extraction logfile from 20. February 2011, 13:05

Mastermind / The Way I Go

Used drive : PIONEER DVD-RW DVR-218L Adapter: 4 ID: 1

Read mode : Secure
Utilize accurate stream : Yes
Defeat audio cache : Yes
Make use of C2 pointers : No

Read offset correction : 6
Overread into Lead-In and Lead-Out : No
Fill up missing offset samples with silence : Yes
Delete leading and trailing silent blocks : No
Null samples used in CRC calculations : Yes
Used interface : Installed external ASPI interface

Used output format : Internal WAV Routines
Sample format : 44.100 Hz; 16 Bit; Stereo


TOC of the extracted CD

Track | Start | Length | Start sector | End sector
---------------------------------------------------------
1 | 0:00.00 | 5:59.65 | 0 | 26989
2 | 5:59.65 | 4:36.52 | 26990 | 47741
3 | 10:36.42 | 5:02.73 | 47742 | 70464
4 | 15:39.40 | 3:20.70 | 70465 | 85534
5 | 19:00.35 | 6:11.02 | 85535 | 113361
6 | 25:11.37 | 5:43.55 | 113362 | 139141
7 | 30:55.17 | 4:58.58 | 139142 | 161549
8 | 35:54.00 | 6:16.22 | 161550 | 189771
9 | 42:10.22 | 6:42.65 | 189772 | 219986
10 | 48:53.12 | 5:32.60 | 219987 | 244946
11 | 54:25.72 | 5:46.65 | 244947 | 270961


Range status and errors

Selected range

Filename C:\Music MP3\Mastermind - The Way I Go.wav

Peak level 98.8 %
Range quality 99.9 %
Copy CRC 350DB598
Copy OK

No errors occurred


AccurateRip summary

Track 1 not present in database
Track 2 not present in database
Track 3 not present in database
Track 4 not present in database
Track 5 not present in database
Track 6 not present in database
Track 7 not present in database
Track 8 not present in database
Track 9 not present in database
Track 10 not present in database
Track 11 not present in database

None of the tracks are present in the AccurateRip database

End of status report


Cue
REM GENRE "Heavy Metal"
REM DATE 2001
REM DISCID 910E1C0B
REM COMMENT "ExactAudioCopy v0.99pb5"
PERFORMER "Mastermind"
TITLE "The Way I Go"
FILE "Mastermind - The Way I Go.ape" WAVE
TRACK 01 AUDIO
TITLE "The Way I Go"
PERFORMER "Mastermind"
INDEX 01 00:00:00
TRACK 02 AUDIO
TITLE "Tell Me Why"
PERFORMER "Mastermind"
INDEX 01 05:59:65
TRACK 03 AUDIO
TITLE "Dusty Road"
PERFORMER "Mastermind"
INDEX 01 10:36:42
TRACK 04 AUDIO
TITLE "No Way Out"
PERFORMER "Mastermind"
INDEX 01 15:39:40
TRACK 05 AUDIO
TITLE "Fire In Your Heart"
PERFORMER "Mastermind"
INDEX 01 19:00:35
TRACK 06 AUDIO
TITLE "The Ancient Dream"
PERFORMER "Mastermind"
INDEX 01 25:11:37
TRACK 07 AUDIO
TITLE "Fight To Survive"
PERFORMER "Mastermind"
INDEX 01 30:55:17
TRACK 08 AUDIO
TITLE "Don't Look Away"
PERFORMER "Mastermind"
INDEX 01 35:54:00
TRACK 09 AUDIO
TITLE "Reach Out For You"
PERFORMER "Mastermind"
INDEX 01 42:10:22
TRACK 10 AUDIO
TITLE "Never Say Never"
PERFORMER "Mastermind"
INDEX 01 48:53:12
TRACK 11 AUDIO
TITLE "Back Against The Wall"
PERFORMER "Mastermind"
INDEX 01 54:25:72

_________________
http://img254.imageshack.us/img254/1015 ... 743574.gif
http://img140.imageshack.us/img140/7192 ... arlogo.jpg


Top
 Profile  
 
 
PostPosted: 20 Feb 2011 
Хиппей (support team)
User avatar
Joined: 30 Jul 2007
Posts: 106449
Lоcаtion: Киев (Kyiv, UA)
Age: 45
Name: Andrey
:thanx:

_________________


Top
 Profile E-mail  
 
 
PostPosted: 20 Feb 2011 
Я набрал 1000 сообщений!
User avatar
Joined: 25 Dec 2008
Posts: 1545
Age: 43
Name: Павел
Спасибо,Владимир!Больно на мульке эту банду хвалят.Надо качать!


Top
 Profile  
 
 
PostPosted: 20 Feb 2011 
Прокъмитолист
User avatar
Joined: 12 Aug 2007
Posts: 6471
Lоcаtion: Санктъ-Петербуркъ
Age: 50
Name: Олекъ
а я уже с ММТ утащил. Володя, спасибо! :true:

_________________
прокъметол - это музыко, от которово есть прок (ы)


Top
 Profile  
 
 
PostPosted: 20 Feb 2011 
спирт 100%
User avatar
Joined: 22 Sep 2008
Posts: 4281
Age: 47
Name: Саня
И, я заберу :thanx: Спасибо!


Top
 Profile  
 
 
PostPosted: 15 Sep 2012 
5-speed satisfactor
User avatar
Joined: 16 Feb 2009
Posts: 3556
Lоcаtion: New York, USA
Age: 40
Name: Leonid
Can you reup covers? Thanks.

_________________
Death rules! Metal to all who oppose!


Top
 Profile  
 
Display posts from previous:  Sort by  
Post new topic Reply to topic  [ 6 posts ] 

All times are UTC + 3 hours


Who is online

Users browsing this forum: No registered users and 2 guests


You cannot post new topics in this forum
You cannot reply to topics in this forum
You cannot edit your posts in this forum
You cannot delete your posts in this forum
You cannot post attachments in this forum

Search for:
Яндекс.Метрика
Powered by phpBB © 2000, 2002, 2005, 2007 phpBB Group