\m/ 80's metal \m/

Информационно-аналитический форум "80 см пыли" (In Search We Trust) "У нас никто никуда не спешит"
Me For You - http://me-4u.com
It is currently 24 Sep 2018

All times are UTC + 3 hours

Spoiler
Chat - temporary registration for foreign users (please leave your application here)







Post new topic Reply to topic  [ 6 posts ] 
Author Message
 
PostPosted: 22 Dec 2010 
Работнечег
User avatar
Joined: 28 Aug 2007
Posts: 5409
Lоcаtion: г. Москва
Age: 29
Name: Дима
Image

Year: 1995
Label: Long Island Records
Country: USA
Style: Power Metal
Format: Flac+Cue+Log/Covers
Size: 279 Mb/6 Mb

Line-Up:
Rick A. Shay: Vocals
Robby Nemeth: Guitar (R.I.P., 14.3. 2008)
Tom Eframedes: Guitar (Wicked Lester)
Brian Louis: Bass
Ray Zale: Drums


Tracklist:
1. So Uncertain 01:03
2. Just A Thought 03:47
3. All Your Days 04:33
4. Victim Of Circumstance 04:46
5. Time To Learn 05:11
6. Visions 04:25
7. Move Along 04:26
8. Trouble 04:16
9. Bottom Line 05:22
10. Never Goodbye 05:53
Total playing time 44:02

LOG
Exact Audio Copy V0.99 prebeta 5 from 4. May 2009

EAC extraction logfile from 22. December 2010, 14:08

Medalyon / Visions

Used drive : PIONEER DVD-RW DVR-116D Adapter: 0 ID: 0

Read mode : Secure
Utilize accurate stream : Yes
Defeat audio cache : Yes
Make use of C2 pointers : No

Read offset correction : 96
Overread into Lead-In and Lead-Out : No
Fill up missing offset samples with silence : Yes
Delete leading and trailing silent blocks : No
Null samples used in CRC calculations : Yes
Used interface : Native Win32 interface for Win NT & 2000

Used output format : User Defined Encoder
Selected bitrate : 32 kBit/s
Quality : High
Add ID3 tag : No
Command line compressor : C:\Program Files\Exact Audio Copy\Flac\flac.exe
Additional command line options : -6 -V %s


TOC of the extracted CD

Track | Start | Length | Start sector | End sector
---------------------------------------------------------
1 | 0:00.00 | 1:09.12 | 0 | 5186
2 | 1:09.12 | 3:47.08 | 5187 | 22219
3 | 4:56.20 | 4:33.47 | 22220 | 42741
4 | 9:29.67 | 4:48.20 | 42742 | 64361
5 | 14:18.12 | 5:11.45 | 64362 | 87731
6 | 19:29.57 | 4:27.18 | 87732 | 107774
7 | 23:57.00 | 4:27.25 | 107775 | 127824
8 | 28:24.25 | 4:18.02 | 127825 | 147176
9 | 32:42.27 | 5:24.35 | 147177 | 171511
10 | 38:06.62 | 5:53.58 | 171512 | 198044


Range status and errors

Selected range

Filename D:\Музыка\Lossless\Medalyon - Visions (1995)\Medalyon - Visions.wav

Peak level 97.7 %
Range quality 99.9 %
Copy CRC 1853E30E
Copy OK

No errors occurred


AccurateRip summary

Track 1 accurately ripped (confidence 1) [D4D0D4C9]
Track 2 accurately ripped (confidence 1) [D99892D8]
Track 3 accurately ripped (confidence 1) [E89A73F6]
Track 4 accurately ripped (confidence 1) [7499D4F7]
Track 5 accurately ripped (confidence 1) [E1A82BE8]
Track 6 accurately ripped (confidence 1) [6940B6F4]
Track 7 accurately ripped (confidence 1) [A0D4C4B0]
Track 8 accurately ripped (confidence 1) [6BB5BBB0]
Track 9 accurately ripped (confidence 1) [FDB43E64]
Track 10 accurately ripped (confidence 1) [F7A2FC33]

All tracks accurately ripped

End of status report

CUE
REM GENRE "Power Metal"
REM DATE 1995
REM DISCID 890A500A
REM COMMENT "ExactAudioCopy v0.99pb5"
PERFORMER "Medalyon"
TITLE "Visions"
FILE "Medalyon - Visions.flac" WAVE
TRACK 01 AUDIO
TITLE "So Uncertain"
PERFORMER "Medalyon"
INDEX 01 00:00:00
TRACK 02 AUDIO
TITLE "Just A Thought"
PERFORMER "Medalyon"
INDEX 01 01:09:12
TRACK 03 AUDIO
TITLE "All Your Days"
PERFORMER "Medalyon"
INDEX 01 04:56:20
TRACK 04 AUDIO
TITLE "Victim Of Circumstance"
PERFORMER "Medalyon"
INDEX 01 09:29:67
TRACK 05 AUDIO
TITLE "Time To Learn"
PERFORMER "Medalyon"
INDEX 00 14:16:27
INDEX 01 14:18:12
TRACK 06 AUDIO
TITLE "Visions"
PERFORMER "Medalyon"
INDEX 00 19:29:17
INDEX 01 19:29:57
TRACK 07 AUDIO
TITLE "Move Along"
PERFORMER "Medalyon"
INDEX 00 23:55:52
INDEX 01 23:57:00
TRACK 08 AUDIO
TITLE "Trouble"
PERFORMER "Medalyon"
INDEX 00 28:23:47
INDEX 01 28:24:25
TRACK 09 AUDIO
TITLE "Bottom Line"
PERFORMER "Medalyon"
INDEX 00 32:40:60
INDEX 01 32:42:27
TRACK 10 AUDIO
TITLE "Never Goodbye"
PERFORMER "Medalyon"
INDEX 00 38:05:22
INDEX 01 38:06:62

Spectrum
Image


Narod.Ru

Надо отметить, что спектр здесь не очень, но тау аналайзер показал все трэки как CDDA. :umnik:


Top
 Profile E-mail  
 
 
PostPosted: 22 Dec 2010 
Хиппей (support team)
User avatar
Joined: 30 Jul 2007
Posts: 106509
Lоcаtion: Киев (Kyiv, UA)
Age: 45
Name: Andrey
:thanx:

mirror: MultiUp l Narod

_________________


Top
 Profile E-mail  
 
 
PostPosted: 23 Dec 2010 
А может смените мне статус?..
Joined: 03 Jul 2009
Posts: 786
Lоcаtion: Serbia
Name: Laki
Wow!!!! thank you Dima !!!!!


Top
 Profile E-mail  
 
 
PostPosted: 23 Dec 2010 
Прокъмитолист
User avatar
Joined: 12 Aug 2007
Posts: 6473
Lоcаtion: Санктъ-Петербуркъ
Age: 50
Name: Олекъ
Димка, сенкью! :true:

_________________
прокъметол - это музыко, от которово есть прок (ы)


Top
 Profile  
 
 
PostPosted: 04 May 2012 
Работнечег
User avatar
Joined: 28 Aug 2007
Posts: 5409
Lоcаtion: г. Москва
Age: 29
Name: Дима
Новая ссылка в первом посте!


Top
 Profile E-mail  
 
 
PostPosted: 04 Jul 2012 
Хиппей (support team)
User avatar
Joined: 30 Jul 2007
Posts: 106509
Lоcаtion: Киев (Kyiv, UA)
Age: 45
Name: Andrey
Кстати, а альбомчик то оказался охренезным :thanx: :true:

Все помнят песню "Azriel" от Crimson Glory?
Немного тягучая такая, мрачноватая, но весьма легко запоминается.

Короче, вот весь этот альбом этой вот группы выдержан в том же ключе - техничный павер, или, если хотите, прогрессивный павер и паверный прогметол :dance:

8/10

_________________


Top
 Profile E-mail  
 
Display posts from previous:  Sort by  
Post new topic Reply to topic  [ 6 posts ] 

All times are UTC + 3 hours


Who is online

Users browsing this forum: No registered users and 1 guest


You cannot post new topics in this forum
You cannot reply to topics in this forum
You cannot edit your posts in this forum
You cannot delete your posts in this forum
You cannot post attachments in this forum

Search for:
Яндекс.Метрика
Powered by phpBB © 2000, 2002, 2005, 2007 phpBB Group