\m/ 80's metal \m/

Информационно-аналитический форум "80 см пыли" (In Search We Trust) "У нас никто никуда не спешит"
Me For You - http://me-4u.com
It is currently 23 Sep 2018

All times are UTC + 3 hours

Spoiler
Chat - temporary registration for foreign users (please leave your application here)







Post new topic Reply to topic  [ 26 posts ]  Go to page Previous  1, 2
Author Message
 
PostPosted: 06 Mar 2017 
Хиппей (support team)
User avatar
Joined: 30 Jul 2007
Posts: 106481
Lоcаtion: Киев (Kyiv, UA)
Age: 45
Name: Andrey
Malon - 2015 - Nuevo Orden Mundial [flac]

mirror: Depos l M-Cloud l Narod

Image Image ImageImageImage

log
Exact Audio Copy V1.1 from 23. June 2015

EAC extraction logfile from 2. March 2016, 22:40

Malon / Nuevo Orden Mundial

Used drive : HL-DT-STDVDRAM GH22NS50 Adapter: 1 ID: 0

Read mode : Secure
Utilize accurate stream : Yes
Defeat audio cache : Yes
Make use of C2 pointers : No

Read offset correction : 667
Overread into Lead-In and Lead-Out : No
Fill up missing offset samples with silence : Yes
Delete leading and trailing silent blocks : No
Null samples used in CRC calculations : Yes
Used interface : Native Win32 interface for Win NT & 2000

Used output format : User Defined Encoder
Selected bitrate : 1024 kBit/s
Quality : High
Add ID3 tag : No
Command line compressor : C:\Program Files (x86)\Exact Audio Copy\Flac\flac.exe
Additional command line options : -V -8 -T "artist=%artist%" -T "title=%title%" -T "album=%albumtitle%" -T "date=%year%" -T "tracknumber=%tracknr%" -T "genre=%genre%" -8 -V %source%


TOC of the extracted CD

Track | Start | Length | Start sector | End sector
---------------------------------------------------------
1 | 0:00.00 | 3:51.32 | 0 | 17356
2 | 3:51.32 | 2:29.70 | 17357 | 28601
3 | 6:21.27 | 4:14.41 | 28602 | 47692
4 | 10:35.68 | 3:21.58 | 47693 | 62825
5 | 13:57.51 | 4:32.52 | 62826 | 83277
6 | 18:30.28 | 3:15.23 | 83278 | 97925
7 | 21:45.51 | 2:33.02 | 97926 | 109402
8 | 24:18.53 | 4:50.69 | 109403 | 131221
9 | 29:09.47 | 3:57.21 | 131222 | 149017
10 | 33:06.68 | 4:00.34 | 149018 | 167051
11 | 37:07.27 | 4:35.50 | 167052 | 187726
12 | 41:43.02 | 4:12.59 | 187727 | 206685


Range status and errors

Selected range

Filename C:\Users\Lucas\Downloads\Malon - Nuevo Orden Mundial.wav

Peak level 97.7 %
Extraction speed 7.0 X
Range quality 100.0 %
Test CRC DFC3B46B
Copy CRC DFC3B46B
Copy OK

No errors occurred


AccurateRip summary

Track 1 not present in database
Track 2 not present in database
Track 3 not present in database
Track 4 not present in database
Track 5 not present in database
Track 6 not present in database
Track 7 not present in database
Track 8 not present in database
Track 9 not present in database
Track 10 not present in database
Track 11 not present in database
Track 12 not present in database

None of the tracks are present in the AccurateRip database

End of status report

---- CUETools DB Plugin V2.1.6

[CTDB TOCID: NkzQNZ6aIZCvM0lfdaILJ5fgSM4-] found
Submit result: already submitted
Track | CTDB Status
1 | (5/5) Accurately ripped
2 | (5/5) Accurately ripped
3 | (5/5) Accurately ripped
4 | (5/5) Accurately ripped
5 | (5/5) Accurately ripped
6 | (5/5) Accurately ripped
7 | (5/5) Accurately ripped
8 | (5/5) Accurately ripped
9 | (5/5) Accurately ripped
10 | (5/5) Accurately ripped
11 | (5/5) Accurately ripped
12 | (5/5) Accurately ripped


==== Log checksum A342C859898BD16F150C880D13146952ED577038627C024F169EC0B2FF56EDC8 ====

cue
REM GENRE "Heavy Metal"
REM DATE 2015
REM DISCID 9A0AC30C
REM COMMENT "ExactAudioCopy v1.1"
PERFORMER "Malon"
TITLE "Nuevo Orden Mundial"
FILE "Malon - Nuevo Orden Mundial.flac" WAVE
TRACK 01 AUDIO
TITLE "Nuevo Orden Mundial"
PERFORMER "Malon"
INDEX 01 00:00:00
TRACK 02 AUDIO
TITLE "El Infierno De Ayer"
PERFORMER "Malon"
INDEX 01 03:51:32
TRACK 03 AUDIO
TITLE "Barbarie Colectiva"
PERFORMER "Malon"
INDEX 01 06:21:27
TRACK 04 AUDIO
TITLE "Mi Digna Lealtad"
PERFORMER "Malon"
INDEX 01 10:35:68
TRACK 05 AUDIO
TITLE "Fuiste y Seras"
PERFORMER "Malon"
INDEX 01 13:57:51
TRACK 06 AUDIO
TITLE "Recordar Para No Olvidar"
PERFORMER "Malon"
INDEX 01 18:30:28
TRACK 07 AUDIO
TITLE "Plata o Plomo"
PERFORMER "Malon"
INDEX 01 21:45:51
TRACK 08 AUDIO
TITLE "Deshacer El Mundo"
PERFORMER "Malon"
INDEX 01 24:18:53
TRACK 09 AUDIO
TITLE "Devorador De Sueсos"
PERFORMER "Malon"
INDEX 01 29:09:47
TRACK 10 AUDIO
TITLE "Triste Funeral"
PERFORMER "Malon"
INDEX 01 33:06:68
TRACK 11 AUDIO
TITLE "La Matanza"
PERFORMER "Malon"
INDEX 01 37:07:27
TRACK 12 AUDIO
TITLE "Una Luz"
PERFORMER "Malon"
INDEX 01 41:43:02

_________________


Top
 Profile E-mail  
 
 
PostPosted: 07 Mar 2017 
Хиппей (support team)
User avatar
Joined: 30 Jul 2007
Posts: 106481
Lоcаtion: Киев (Kyiv, UA)
Age: 45
Name: Andrey
Scatterbrain wrote:
Malon - 2015 - Nuevo Orden Mundial

И этот альбом хорош и уже монументален :meloman:
Занятно, что будет, если вокалист начнет петь на английском?

7/10

_________________


Top
 Profile E-mail  
 
 
PostPosted: 07 Mar 2017 
Хиппей (support team)
User avatar
Joined: 30 Jul 2007
Posts: 106481
Lоcаtion: Киев (Kyiv, UA)
Age: 45
Name: Andrey
Два, чего заметил - группа стала звучать сейчас как .. мягкий Overkill :meloman:

_________________


Top
 Profile E-mail  
 
 
PostPosted: 08 Mar 2017 
Я набрал 1000 сообщений!
Joined: 09 Jul 2008
Posts: 2386
Age: 45
Name: Сергей
это самовнушение


Top
 Profile  
 
 
PostPosted: 08 Mar 2017 
Работнечег
User avatar
Joined: 28 Aug 2007
Posts: 5409
Lоcаtion: г. Москва
Age: 29
Name: Дима
Я кстати не совсем тоже разделяю восторгов, Андрюхи по этой группе, хотя только один альбом слушал. Неплохо, наверное да, но не более того. Попробую еще какой-нибудь альбом послушать на досуге.


Top
 Profile E-mail  
 
 
PostPosted: 08 Mar 2017 
Хиппей (support team)
User avatar
Joined: 30 Jul 2007
Posts: 106481
Lоcаtion: Киев (Kyiv, UA)
Age: 45
Name: Andrey
Мы музыку слушайте и попробуйте абстрагироваться от испаноязычной лирики.
Уверен, эта группа и Олегу Спиралычу понравится. Или уже давно нравится.

_________________


Top
 Profile E-mail  
 
Display posts from previous:  Sort by  
Post new topic Reply to topic  [ 26 posts ]  Go to page Previous  1, 2

All times are UTC + 3 hours


Who is online

Users browsing this forum: No registered users and 3 guests


You cannot post new topics in this forum
You cannot reply to topics in this forum
You cannot edit your posts in this forum
You cannot delete your posts in this forum
You cannot post attachments in this forum

Search for:
Яндекс.Метрика
Powered by phpBB © 2000, 2002, 2005, 2007 phpBB Group