\m/ 80's metal \m/

Информационно-аналитический форум "80 см пыли" (In Search We Trust) "У нас никто никуда не спешит"
Me For You - http://me-4u.com
It is currently 15 Nov 2018

All times are UTC + 3 hours

Spoiler
Chat - temporary registration for foreign users (please leave your application here)







Post new topic Reply to topic  [ 26 posts ]  Go to page 1, 2  Next
Author Message
 
PostPosted: 25 May 2008 
труъ антисионист
User avatar
Joined: 01 Aug 2007
Posts: 4541
Lоcаtion: Откуда и большинство из нас
Age: 37
Name: Дядя Вова
Malón - El EP 2002 (EP)

Image

Лейбл: Independent
Стиль: Thrash Metal
Формат: Flac
Размер: 137 Mb

Band:

Eduardo Ezcurra - Vocals (Razones Concientes, Traición)
Antonio "Tano" Romano - Guitars (Hermética, Visceral (Arg), Cerbero, Razones Concientes, Reino Sangriento)
Karlos Cuadrado - Bass (Arraigo, Visceral (Arg), Cerbero, Reino Sangriento)
Claudio "Pato" Strunz - Drums (Hermética, Simbiosis, Arraigo)

Tracklist:

1. Razones Concientes 03:16
2. Deshumanizado 03:43
3. Pálidas Noches 03:04
4. Tendencias 03:38
5. Nido de Almas 04:16

Total playing time 17:58

iFolder l Narod l M-Cloud

log
Exact Audio Copy V0.99 prebeta 5 from 4. May 2009

EAC extraction logfile from 5. November 2010, 0:21

Malon / Malon

Used drive : TSSTcorpCDDVDW SH-S203D Adapter: 1 ID: 1

Read mode : Secure
Utilize accurate stream : Yes
Defeat audio cache : Yes
Make use of C2 pointers : No

Read offset correction : 6
Overread into Lead-In and Lead-Out : No
Fill up missing offset samples with silence : Yes
Delete leading and trailing silent blocks : No
Null samples used in CRC calculations : Yes
Used interface : Native Win32 interface for Win NT & 2000

Used output format : Internal WAV Routines
Sample format : 44.100 Hz; 16 Bit; Stereo


TOC of the extracted CD

Track | Start | Length | Start sector | End sector
---------------------------------------------------------
1 | 0:00.00 | 3:16.42 | 0 | 14741
2 | 3:16.42 | 3:43.09 | 14742 | 31475
3 | 6:59.51 | 3:04.12 | 31476 | 45287
4 | 10:03.63 | 3:38.20 | 45288 | 61657
5 | 13:42.08 | 4:16.05 | 61658 | 80862


Range status and errors

Selected range

Filename D:\На телефон\НОВОЕ\Malon - Malon.wav

Peak level 98.8 %
Range quality 100.0 %
Copy CRC A011A840
Copy OK

No errors occurred


AccurateRip summary

Track 1 not present in database
Track 2 not present in database
Track 3 not present in database
Track 4 not present in database
Track 5 not present in database

None of the tracks are present in the AccurateRip database

End of status report

cue
REM GENRE "Heavy Metal"
REM DATE 2002
REM SOURCE "KMA"
REM DISCID 34043605
REM COMMENT "ExactAudioCopy v0.99pb5"
PERFORMER "Malon"
TITLE "Malon"
FILE "Malon - Malon.flac" WAVE
TRACK 01 AUDIO
TITLE "Track01"
PERFORMER "Malon"
INDEX 01 00:00:00
TRACK 02 AUDIO
TITLE "Track02"
PERFORMER "Malon"
INDEX 01 03:16:42
TRACK 03 AUDIO
TITLE "Track03"
PERFORMER "Malon"
INDEX 01 06:59:51
TRACK 04 AUDIO
TITLE "Track04"
PERFORMER "Malon"
INDEX 01 10:03:63
TRACK 05 AUDIO
TITLE "Track05"
PERFORMER "Malon"
INDEX 01 13:42:08

_________________
Image
Image


Top
 Profile  
 
 
PostPosted: 25 May 2008 
Хиппей (support team)
User avatar
Joined: 30 Jul 2007
Posts: 108009
Lоcаtion: Киев (Kyiv, UA)
Age: 45
Name: Andrey
Спасиб, попробую что это :thanx:


Top
 Profile E-mail  
 
 
PostPosted: 25 May 2008 
Хиппей (support team)
User avatar
Joined: 30 Jul 2007
Posts: 108009
Lоcаtion: Киев (Kyiv, UA)
Age: 45
Name: Andrey
Да, на всяк случай. Ссылка осталась живая только на Меге :oops:


Top
 Profile E-mail  
 
 
PostPosted: 24 Dec 2008 
хард н хэвщик (support team)
User avatar
Joined: 02 Jun 2008
Posts: 16880
Lоcаtion: Н.Новгород
Age: 31
Name: Артем
Scatterbrain wrote:
Ссылка осталась живая только на Меге

теперя и там нету ...


Top
 Profile  
 
 
PostPosted: 21 Dec 2016 
Работнечег
User avatar
Joined: 28 Aug 2007
Posts: 5507
Lоcаtion: г. Москва
Age: 29
Name: Дима
Malón - Justicia o resistencia 1996

Image

Label: Odeon
Genre: Thrash Metal
Coutry: Argentina
Format: Flac + Log + Cue + Covers
Size: 463 Mb

Line-Up:
Karlos Cuadrado - Bass (ex-Arraigo, ex-Cerbero, ex-Reino Sangriento, ex-Visceral, ex-Hermética (live))
Claudio "Pato" Strunz - Drums (Candente, ex-Arraigo, ex-Heinkel, ex-Hermética, ex-Simbiosis)
Antonio "Tano" Romano - Guitars (ex-Cerbero, ex-Hermética, ex-Razones Concientes, ex-Visceral, ex-Oconnor (live))
Claudio O'Connor - Vocals (Oconnor, ex-Hermética, ex-Mark I)


Tracklist:
1. Nido de almas 04:15
2. Grito de Pilagá 04:43
3. Hipotecado 05:03
4. Cicatrizando 03:53
5. Bajo el dominio danzante 05:33
6. Sobaco ilustrado 04:24
7. Orgías bacanales 04:32
8. El gran pozo criollo 04:36
9. Judas de oficio 04:13
10. Revolución nacional 04:19
11. 30000 plegarias 05:35
12. Si se calla el cantor (Horacio Guarany cover) 10:26

LOG
Exact Audio Copy V0.99 prebeta 5 from 4. May 2009

EAC extraction logfile from 27. November 2016, 19:11

Malon / Justicia O Resistencia

Used drive : PIONEER DVD-RW DVR-221 Adapter: 2 ID: 1

Read mode : Secure
Utilize accurate stream : Yes
Defeat audio cache : Yes
Make use of C2 pointers : No

Read offset correction : 6
Overread into Lead-In and Lead-Out : No
Fill up missing offset samples with silence : Yes
Delete leading and trailing silent blocks : No
Null samples used in CRC calculations : Yes
Used interface : Native Win32 interface for Win NT & 2000

Used output format : User Defined Encoder
Selected bitrate : 32 kBit/s
Quality : High
Add ID3 tag : No
Command line compressor : C:\Program Files\Exact Audio Copy\Flac\flac.exe
Additional command line options : -6 -V %s


TOC of the extracted CD

Track | Start | Length | Start sector | End sector
---------------------------------------------------------
1 | 0:00.00 | 4:15.20 | 0 | 19144
2 | 4:15.20 | 4:43.10 | 19145 | 40379
3 | 8:58.30 | 5:03.57 | 40380 | 63161
4 | 14:02.12 | 3:53.73 | 63162 | 80709
5 | 17:56.10 | 5:33.67 | 80710 | 105751
6 | 23:30.02 | 4:24.45 | 105752 | 125596
7 | 27:54.47 | 4:32.18 | 125597 | 146014
8 | 32:26.65 | 4:36.20 | 146015 | 166734
9 | 37:03.10 | 4:13.50 | 166735 | 185759
10 | 41:16.60 | 4:19.10 | 185760 | 205194
11 | 45:35.70 | 5:35.65 | 205195 | 230384
12 | 51:11.60 | 10:26.45 | 230385 | 277379


Range status and errors

Selected range

Filename D:\Музыка\Lossless\Malon - Justicia O Resistencia (1996)\Malon - Justicia O Resistencia.wav

Peak level 100.0 %
Range quality 100.0 %
Copy CRC C061C42B
Copy OK

No errors occurred


AccurateRip summary

Track 1 cannot be verified as accurate (confidence 1) [33BEEC93], AccurateRip returned [8C0AFAB4]
Track 2 cannot be verified as accurate (confidence 1) [7572094B], AccurateRip returned [9E1886CE]
Track 3 cannot be verified as accurate (confidence 1) [418FAE79], AccurateRip returned [DE4DC4D3]
Track 4 cannot be verified as accurate (confidence 1) [1A0C0D99], AccurateRip returned [5A714C96]
Track 5 cannot be verified as accurate (confidence 1) [421A4D71], AccurateRip returned [1F94FC7D]
Track 6 cannot be verified as accurate (confidence 1) [8CD66197], AccurateRip returned [0708E3B2]
Track 7 cannot be verified as accurate (confidence 1) [014D50C0], AccurateRip returned [9A412FFE]
Track 8 cannot be verified as accurate (confidence 1) [B207F131], AccurateRip returned [AC4C659B]
Track 9 cannot be verified as accurate (confidence 1) [62FCDF4C], AccurateRip returned [FCCD05DF]
Track 10 cannot be verified as accurate (confidence 1) [95E89DE1], AccurateRip returned [5928A9DE]
Track 11 cannot be verified as accurate (confidence 1) [C8193FEA], AccurateRip returned [ECA0821D]
Track 12 cannot be verified as accurate (confidence 1) [FCC80BFA], AccurateRip returned [914DE45B]

No tracks could be verified as accurate
You may have a different pressing from the one(s) in the database

End of status report

CUE
REM GENRE "Thrash Metal"
REM DATE 1996
REM DISCID AB0E720C
REM COMMENT "ExactAudioCopy v0.99pb5"
PERFORMER "Malon"
TITLE "Justicia O Resistencia"
FILE "Malon - Justicia O Resistencia.flac" WAVE
TRACK 01 AUDIO
TITLE "Nido De Almas"
PERFORMER "Malon"
INDEX 01 00:00:00
TRACK 02 AUDIO
TITLE "Grito De Pilaga"
PERFORMER "Malon"
INDEX 01 04:15:20
TRACK 03 AUDIO
TITLE "Hipotecado"
PERFORMER "Malon"
INDEX 01 08:58:30
TRACK 04 AUDIO
TITLE "Cicatrizando"
PERFORMER "Malon"
INDEX 01 14:02:12
TRACK 05 AUDIO
TITLE "Bajo El Dominio Danzante"
PERFORMER "Malon"
INDEX 01 17:56:10
TRACK 06 AUDIO
TITLE "Sobaco Ilustrado"
PERFORMER "Malon"
INDEX 01 23:30:02
TRACK 07 AUDIO
TITLE "Orgias Bacanales"
PERFORMER "Malon"
INDEX 01 27:54:47
TRACK 08 AUDIO
TITLE "El Gran Pozo Criollo"
PERFORMER "Malon"
INDEX 01 32:26:65
TRACK 09 AUDIO
TITLE "Judas De Oficio"
PERFORMER "Malon"
INDEX 01 37:03:10
TRACK 10 AUDIO
TITLE "Revolucion Nacional"
PERFORMER "Malon"
INDEX 01 41:16:60
TRACK 11 AUDIO
TITLE "30.000 Plegarias"
PERFORMER "Malon"
INDEX 01 45:35:70
TRACK 12 AUDIO
TITLE "Si Se Calla El Cantor"
PERFORMER "Malon"
INDEX 01 51:11:60


Yadi

Добротный альбом, которому не хватает наличия хитов.


Top
 Profile E-mail  
 
 
PostPosted: 21 Dec 2016 
Работнечег
User avatar
Joined: 28 Aug 2007
Posts: 5507
Lоcаtion: г. Москва
Age: 29
Name: Дима
Можно совместить с этой темой, правда там ссылка мертвая..
viewtopic.php?f=186&t=885&hilit=malon


Top
 Profile E-mail  
 
 
PostPosted: 21 Dec 2016 
консэрваторъ
Joined: 11 Aug 2007
Posts: 16174
Lоcаtion: Псков
Age: 44
Name: Сергей
Совмещён...
1995, 1996, 2002, FLAC (image+.cue), lossless
2015, FLAC (image+.cue), lossless

Ого!.. :shok: ... :meloman:

Malon -2015- Nuevo Orden Mundial | +

_________________
THRASH 'EM ALL


Top
 Profile E-mail  
 
 
PostPosted: 21 Dec 2016 
консэрваторъ
Joined: 11 Aug 2007
Posts: 16174
Lоcаtion: Псков
Age: 44
Name: Сергей
Но пасаран, блин... :dash: :(

_________________
THRASH 'EM ALL


Top
 Profile E-mail  
 
 
PostPosted: 21 Dec 2016 
Прокъмитолист
User avatar
Joined: 12 Aug 2007
Posts: 6503
Lоcаtion: Санктъ-Петербуркъ
Age: 51
Name: Олекъ
:thanx:

_________________
прокъметол - это музыко, от которово есть прок (ы)


Top
 Profile  
 
 
PostPosted: 23 Dec 2016 
Работнечег
User avatar
Joined: 28 Aug 2007
Posts: 5507
Lоcаtion: г. Москва
Age: 29
Name: Дима
Но пасаран, блин... :dash: :(

Как впечатления от последнего альбома, Серег?


Top
 Profile E-mail  
 
 
PostPosted: 24 Dec 2016 
консэрваторъ
Joined: 11 Aug 2007
Posts: 16174
Lоcаtion: Псков
Age: 44
Name: Сергей
Не могу слушать на испанском, простите... :oops:

_________________
THRASH 'EM ALL


Top
 Profile E-mail  
 
 
PostPosted: 16 Feb 2017 
Хиппей (support team)
User avatar
Joined: 30 Jul 2007
Posts: 108009
Lоcаtion: Киев (Kyiv, UA)
Age: 45
Name: Andrey
church wrote:
Malón - Justicia o resistencia 1996

:thanx:

mirror: iFolder l Narod l M-Cloud

_________________


Top
 Profile E-mail  
 
 
PostPosted: 16 Feb 2017 
Хиппей (support team)
User avatar
Joined: 30 Jul 2007
Posts: 108009
Lоcаtion: Киев (Kyiv, UA)
Age: 45
Name: Andrey

:thanx:

_________________


Top
 Profile E-mail  
 
 
PostPosted: 16 Feb 2017 
Хиппей (support team)
User avatar
Joined: 30 Jul 2007
Posts: 108009
Lоcаtion: Киев (Kyiv, UA)
Age: 45
Name: Andrey
church wrote:
Malón - Justicia o resistencia 1996

Неожиданно очень добротный альбом случился. несмотря на испаноязычную лирику и год издания.
Высококачественный Power-Thrash с классическим широкодиапазонным вокалом для данного стиля, небольшой мрачинкой в голосе и музыке и весьма разнообразными песнями. Целостное полотно, в общем, вышло, всем любителям американского павер-трэша (Metal Church, Savatage, Vicious Rumors) срочно слушать и перецца :lob: :lob: :lob:

8/10

Забираю альбом в топы.

_________________


Top
 Profile E-mail  
 
 
PostPosted: 17 Feb 2017 
Хиппей (support team)
User avatar
Joined: 30 Jul 2007
Posts: 108009
Lоcаtion: Киев (Kyiv, UA)
Age: 45
Name: Andrey
Malon - 1995 - Espiritu combativo [flac]


Image

mirror: iFolder l Narod l M-Cloud

Понравился точно так же, как и последующий альбом :meloman:

8/10

Image

Image

log
Exact Audio Copy V0.99 prebeta 5 from 4. May 2009

EAC extraction logfile from 5. November 2010, 0:31

Malon / Espiritu combativo

Used drive : TSSTcorpCDDVDW SH-S203D Adapter: 1 ID: 1

Read mode : Secure
Utilize accurate stream : Yes
Defeat audio cache : Yes
Make use of C2 pointers : No

Read offset correction : 6
Overread into Lead-In and Lead-Out : No
Fill up missing offset samples with silence : Yes
Delete leading and trailing silent blocks : No
Null samples used in CRC calculations : Yes
Used interface : Native Win32 interface for Win NT & 2000

Used output format : Internal WAV Routines
Sample format : 44.100 Hz; 16 Bit; Stereo


TOC of the extracted CD

Track | Start | Length | Start sector | End sector
---------------------------------------------------------
1 | 0:00.00 | 3:33.44 | 0 | 16018
2 | 3:33.44 | 3:25.68 | 16019 | 31461
3 | 6:59.37 | 4:13.30 | 31462 | 50466
4 | 11:12.67 | 3:38.67 | 50467 | 66883
5 | 14:51.59 | 5:02.00 | 66884 | 89533
6 | 19:53.59 | 3:46.15 | 89534 | 106498
7 | 23:39.74 | 3:22.64 | 106499 | 121712
8 | 27:02.63 | 2:56.74 | 121713 | 134986
9 | 29:59.62 | 3:58.61 | 134987 | 152897
10 | 33:58.48 | 4:05.70 | 152898 | 171342


Range status and errors

Selected range

Filename D:\На телефон\НОВОЕ\Malon - Espiritu combativo.wav

Peak level 98.8 %
Range quality 100.0 %
Copy CRC D493E732
Copy OK

No errors occurred


AccurateRip summary

Track 1 not present in database
Track 2 not present in database
Track 3 not present in database
Track 4 not present in database
Track 5 not present in database
Track 6 not present in database
Track 7 not present in database
Track 8 not present in database
Track 9 not present in database
Track 10 not present in database

None of the tracks are present in the AccurateRip database

End of status report

cue
REM GENRE "Heavy Metal"
REM DATE 1995
REM SOURCE "KMA"
REM DISCID 6B08EC0A
REM COMMENT "ExactAudioCopy v0.99pb5"
PERFORMER "Malon"
TITLE "Espiritu combativo"
FILE "Malon - Espiritu combativo.flac" WAVE
TRACK 01 AUDIO
TITLE "Track01"
PERFORMER "Malon"
INDEX 01 00:00:00
TRACK 02 AUDIO
TITLE "Track02"
PERFORMER "Malon"
INDEX 01 03:33:44
TRACK 03 AUDIO
TITLE "Track03"
PERFORMER "Malon"
INDEX 01 06:59:37
TRACK 04 AUDIO
TITLE "Track04"
PERFORMER "Malon"
INDEX 01 11:12:67
TRACK 05 AUDIO
TITLE "Track05"
PERFORMER "Malon"
INDEX 01 14:51:59
TRACK 06 AUDIO
TITLE "Track06"
PERFORMER "Malon"
INDEX 01 19:53:59
TRACK 07 AUDIO
TITLE "Track07"
PERFORMER "Malon"
INDEX 01 23:39:74
TRACK 08 AUDIO
TITLE "Track08"
PERFORMER "Malon"
INDEX 01 27:02:63
TRACK 09 AUDIO
TITLE "Track09"
PERFORMER "Malon"
INDEX 01 29:59:62
TRACK 10 AUDIO
TITLE "Track10"
PERFORMER "Malon"
INDEX 01 33:58:48

_________________


Top
 Profile E-mail  
 
 
PostPosted: 20 Feb 2017 
Хиппей (support team)
User avatar
Joined: 30 Jul 2007
Posts: 108009
Lоcаtion: Киев (Kyiv, UA)
Age: 45
Name: Andrey
Glot wrote:
Malón - El EP 2002 (EP)

И миник оказался хорош. Скоростной павер-трэш. Но мfkj песен и не так вштыривает, как полноформатники.

6/10


зы. Ща все ссылки будет обновлены или добавлены.

_________________


Top
 Profile E-mail  
 
 
PostPosted: 20 Feb 2017 
Я набрал 1000 сообщений!
Joined: 09 Jul 2008
Posts: 2459
Age: 45
Name: Сергей
Андрюх, послушай лучше Deadly Mosh в соседней теме, он, хоть о вкусах и не спорят, намного лучший павер-трэш, чем это..


Top
 Profile  
 
 
PostPosted: 20 Feb 2017 
Хиппей (support team)
User avatar
Joined: 30 Jul 2007
Posts: 108009
Lоcаtion: Киев (Kyiv, UA)
Age: 45
Name: Andrey
Серёг, спасибо, а у меня ж очередь :kro:

_________________


Top
 Profile E-mail  
 
 
PostPosted: 20 Feb 2017 
консэрваторъ
Joined: 11 Aug 2007
Posts: 16174
Lоcаtion: Псков
Age: 44
Name: Сергей
Да, да, я там тоже Серёгу жду, дальше слушать... :oops:

_________________
THRASH 'EM ALL


Top
 Profile E-mail  
 
 
PostPosted: 06 Mar 2017 
Хиппей (support team)
User avatar
Joined: 30 Jul 2007
Posts: 108009
Lоcаtion: Киев (Kyiv, UA)
Age: 45
Name: Andrey
О, появился полный и джирный сид. Молимся и качаем :kro:

Image

_________________


Top
 Profile E-mail  
 
Display posts from previous:  Sort by  
Post new topic Reply to topic  [ 26 posts ]  Go to page 1, 2  Next

All times are UTC + 3 hours


Who is online

Users browsing this forum: No registered users and 2 guests


You cannot post new topics in this forum
You cannot reply to topics in this forum
You cannot edit your posts in this forum
You cannot delete your posts in this forum
You cannot post attachments in this forum

Search for:
Яндекс.Метрика
Powered by phpBB © 2000, 2002, 2005, 2007 phpBB Group