\m/ 80's metal \m/

Информационно-аналитический форум "80 см пыли" (In Search We Trust) "У нас никто никуда не спешит"
Me For You - http://me-4u.com
It is currently 19 Nov 2018

All times are UTC + 3 hours

Spoiler
Chat - temporary registration for foreign users (please leave your application here)







Post new topic Reply to topic  [ 11 posts ] 
Author Message
 
PostPosted: 01 Nov 2010 
Персональный статус
User avatar
Joined: 02 Feb 2009
Posts: 236
Lоcаtion: Тульская область
Age: 52
Name: Владимир
Mass - 1983 - Metal Fighter (reissued 2010) [ape]

Image

Genre: Heavy Metal
Location: Germany
Format: ape+cue+log+scans
Size: 323 Mb


Line-up:
Jack E. Burnside - vocals
Detlef Schreiber - guitar
Günther Victor Radny - bass
Johannes Eder - drums

1. Metal Man
2. Fire from Hell
3. Break Out
4. High Heel Thrills
5. Born to Lose
6. Outlaw
7. I Cut Through
8. Night of Steel
9. Leaders Call
10. Born to Be Wild
11. Don't Stop on your Way* (Bonustrack)


iFolder

Автор рипа испанский камрад Sentencia, он же - Tuco Pacifico, который и раздал этот альбом посредством ослика :thanx:

log
Exact Audio Copy V0.99 prebeta 5 from 4. May 2009

EAC extraction logfile from 1. November 2010, 9:19

MASS / Metal Fighter

Used drive : BENQ DVD DD EW164B Adapter: 1 ID: 0

Read mode : Secure
Utilize accurate stream : Yes
Defeat audio cache : Yes
Make use of C2 pointers : No

Read offset correction : 618
Overread into Lead-In and Lead-Out : No
Fill up missing offset samples with silence : Yes
Delete leading and trailing silent blocks : No
Null samples used in CRC calculations : Yes
Used interface : Native Win32 interface for Win NT & 2000

Used output format : Internal WAV Routines
Sample format : 44.100 Hz; 16 Bit; Stereo


TOC of the extracted CD

Track | Start | Length | Start sector | End sector
---------------------------------------------------------
1 | 0:00.00 | 5:49.01 | 0 | 26175
2 | 5:49.01 | 3:46.01 | 26176 | 43126
3 | 9:35.02 | 2:55.01 | 43127 | 56252
4 | 12:30.03 | 3:26.56 | 56253 | 71758
5 | 15:56.59 | 4:18.23 | 71759 | 91131
6 | 20:15.07 | 3:30.28 | 91132 | 106909
7 | 23:45.35 | 3:10.07 | 106910 | 121166
8 | 26:55.42 | 3:15.49 | 121167 | 135840
9 | 30:11.16 | 3:26.69 | 135841 | 151359
10 | 33:38.10 | 4:21.55 | 151360 | 170989
11 | 37:59.65 | 3:49.64 | 170990 | 188228


Range status and errors

Selected range

Filename D:\Mass\MASS - Metal Fighter.wav

Peak level 88.8 %
Range quality 100.0 %
Copy CRC 0B6012DC
Copy OK

No errors occurred


AccurateRip summary

Track 1 accurately ripped (confidence 1) [6ABB300F]
Track 2 accurately ripped (confidence 1) [0107155F]
Track 3 accurately ripped (confidence 1) [66EEF3DF]
Track 4 accurately ripped (confidence 1) [910142B8]
Track 5 accurately ripped (confidence 1) [11769E0F]
Track 6 accurately ripped (confidence 1) [E2A6ABA1]
Track 7 accurately ripped (confidence 1) [A88E37E1]
Track 8 accurately ripped (confidence 1) [34B7F656]
Track 9 accurately ripped (confidence 1) [F9315520]
Track 10 accurately ripped (confidence 1) [3F0403B6]
Track 11 accurately ripped (confidence 1) [44EFF4E6]

All tracks accurately ripped

End of status report

cue
REM GENRE "Heavy Metal"
REM DATE 1983
REM DISCID 8809CD0B
REM COMMENT "ExactAudioCopy v0.99pb5"
PERFORMER "MASS"
TITLE "Metal Fighter"
FILE "MASS - Metal Fighter.wav" WAVE
TRACK 01 AUDIO
TITLE "Metal Man"
PERFORMER "MASS"
INDEX 01 00:00:00
TRACK 02 AUDIO
TITLE "Fire from Hell"
PERFORMER "MASS"
FLAGS DCP
INDEX 00 05:41:11
INDEX 01 05:49:01
TRACK 03 AUDIO
TITLE "Break Out"
PERFORMER "MASS"
FLAGS DCP
INDEX 00 09:27:12
INDEX 01 09:35:02
TRACK 04 AUDIO
TITLE "High Heel Thrills"
PERFORMER "MASS"
FLAGS DCP
INDEX 00 12:22:13
INDEX 01 12:30:03
TRACK 05 AUDIO
TITLE "Born to Lose"
PERFORMER "MASS"
FLAGS DCP
INDEX 00 15:48:69
INDEX 01 15:56:59
TRACK 06 AUDIO
TITLE "Outlaw"
PERFORMER "MASS"
FLAGS DCP
INDEX 00 20:07:17
INDEX 01 20:15:07
TRACK 07 AUDIO
TITLE "I Cut Through"
PERFORMER "MASS"
FLAGS DCP
INDEX 00 23:37:45
INDEX 01 23:45:35
TRACK 08 AUDIO
TITLE "Night of Steel"
PERFORMER "MASS"
FLAGS DCP
INDEX 00 26:47:52
INDEX 01 26:55:42
TRACK 09 AUDIO
TITLE "Leaders Call"
PERFORMER "MASS"
FLAGS DCP
INDEX 00 30:03:26
INDEX 01 30:11:16
TRACK 10 AUDIO
TITLE "Born to Be Wild"
PERFORMER "MASS"
FLAGS DCP
INDEX 00 33:30:20
INDEX 01 33:38:10
TRACK 11 AUDIO
TITLE "Don't Stop on your Way*"
PERFORMER "MASS"
FLAGS DCP
INDEX 00 37:52:00
INDEX 01 37:59:65

_________________
http://img254.imageshack.us/img254/1015 ... 743574.gif
http://img140.imageshack.us/img140/7192 ... arlogo.jpg


Top
 Profile  
 
 
PostPosted: 01 Nov 2010 
Я набрал 1000 сообщений!
User avatar
Joined: 25 Dec 2008
Posts: 1545
Age: 43
Name: Павел
Ого!Дискография пополняется!Спасибо! :dance:


Top
 Profile  
 
 
PostPosted: 01 Nov 2010 
Труъ
Joined: 01 Jan 2010
Posts: 118
Lоcаtion: MetaLWarrioR
Name: Сергей
crimson22
Ещё раз большое спасибо!


Top
 Profile E-mail  
 
 
PostPosted: 02 Nov 2010 
Генеральный thrasher
User avatar
Joined: 03 Oct 2008
Posts: 3506
Lоcаtion: Ханты-Мансийский АО
Age: 43
Name: Сергей
Спасибо,Владимир! :true: :thanx:


Top
 Profile  
 
 
PostPosted: 02 Nov 2010 
А может смените мне статус?..
Joined: 03 Jul 2009
Posts: 808
Lоcаtion: Serbia
Name: Laki
Great Thanks !!!!!!


Top
 Profile E-mail  
 
 
PostPosted: 02 Nov 2010 
А может смените мне статус?..
User avatar
Joined: 24 Dec 2008
Posts: 621
Age: 44
Name: Дмитрий
И от меня :thanx:


Top
 Profile  
 
 
PostPosted: 02 Nov 2010 
metallpaparazzy
User avatar
Joined: 20 Dec 2009
Posts: 674
Lоcаtion: Днепропетровск
Age: 43
Name: Геннадий
:thanx: :thanx: :true: :true:


Top
 Profile E-mail  
 
 
PostPosted: 02 Nov 2010 
Хиппей (support team)
User avatar
Joined: 30 Jul 2007
Posts: 108153
Lоcаtion: Киев (Kyiv, UA)
Age: 45
Name: Andrey
:thanx:

_________________


Top
 Profile E-mail  
 
 
PostPosted: 03 Nov 2010 
Old Time Rock`n`Roll
User avatar
Joined: 23 Jun 2008
Posts: 3363
Lоcаtion: г.Ульяновск
Age: 40
Name: Константин
Спасибо! :thanx:


Top
 Profile  
 
 
PostPosted: 10 Nov 2010 
Эх, добрый я
User avatar
Joined: 04 Nov 2008
Posts: 315
Age: 45
Name: Вадим
Благодарю, скачаю, а то винил юзать лень


Top
 Profile  
 
 
PostPosted: 13 Nov 2010 
Пионэръ
User avatar
Joined: 08 Nov 2010
Posts: 43
Lоcаtion: Россия
Name: Юрий
Отличный альбом,спасибо!


Top
 Profile E-mail  
 
Display posts from previous:  Sort by  
Post new topic Reply to topic  [ 11 posts ] 

All times are UTC + 3 hours


Who is online

Users browsing this forum: No registered users and 2 guests


You cannot post new topics in this forum
You cannot reply to topics in this forum
You cannot edit your posts in this forum
You cannot delete your posts in this forum
You cannot post attachments in this forum

Search for:
Яндекс.Метрика
Powered by phpBB © 2000, 2002, 2005, 2007 phpBB Group