\m/ 80's metal \m/

Информационно-аналитический форум "80 см пыли" (In Search We Trust) "У нас никто никуда не спешит"
Me For You - http://me-4u.com
It is currently 24 Sep 2018

All times are UTC + 3 hours

Spoiler
Chat - temporary registration for foreign users (please leave your application here)







Post new topic Reply to topic  [ 11 posts ] 
Author Message
 
PostPosted: 31 Oct 2010 
Персональный статус
User avatar
Joined: 02 Feb 2009
Posts: 236
Lоcаtion: Тульская область
Age: 52
Name: Владимир
Mass - 1984 - War Law (reissued 2010) [ape]

Image

Genre: Heavy Metal
Location: Germany
Format: ape+cue+log+scans
Size: 326 Mb


Line-up:
Jack E. Burnside: vocals
Detlef Schreiber: guitar
Günther Victor Radny: bass
Johannes Eder: drums

1. War Law
2. Devils Gate
3. Loud And Proud
4. Fire At Night
5. See The Light
6. Lose And Bronze
7. Chained
8. Metal Hymn
9. Playing in a Rock'n Roll Band* (Bonustrack)


iFolder

Narod l MultiUp

Автор рипа испанский камрад Sentencia, он же - Tuco Pacifico, который и раздал этот альбом посредством ослика :thanx:

log
Exact Audio Copy V0.99 prebeta 5 from 4. May 2009

EAC extraction logfile from 26. September 2010, 10:56

MASS / War Law

Used drive : BENQ DVD DD EW164B Adapter: 1 ID: 0

Read mode : Secure
Utilize accurate stream : Yes
Defeat audio cache : Yes
Make use of C2 pointers : No

Read offset correction : 618
Overread into Lead-In and Lead-Out : No
Fill up missing offset samples with silence : Yes
Delete leading and trailing silent blocks : No
Null samples used in CRC calculations : Yes
Used interface : Native Win32 interface for Win NT & 2000

Used output format : Internal WAV Routines
Sample format : 44.100 Hz; 16 Bit; Stereo


TOC of the extracted CD

Track | Start | Length | Start sector | End sector
---------------------------------------------------------
1 | 0:00.00 | 4:55.62 | 0 | 22186
2 | 4:55.62 | 3:38.56 | 22187 | 38592
3 | 8:34.43 | 4:27.12 | 38593 | 58629
4 | 13:01.55 | 3:22.73 | 58630 | 73852
5 | 16:24.53 | 3:37.33 | 73853 | 90160
6 | 20:02.11 | 3:23.62 | 90161 | 105447
7 | 23:25.73 | 5:53.48 | 105448 | 131970
8 | 29:19.46 | 4:00.07 | 131971 | 149977
9 | 33:19.53 | 4:08.67 | 149978 | 168644


Range status and errors

Selected range

Filename D:\Mass\MASS - War Law.wav

Peak level 88.8 %
Range quality 100.0 %
Copy CRC 5A4304CB
Copy OK

No errors occurred


AccurateRip summary

Track 1 accurately ripped (confidence 1) [D6265879]
Track 2 accurately ripped (confidence 1) [C9764E1A]
Track 3 accurately ripped (confidence 1) [12BE4215]
Track 4 accurately ripped (confidence 1) [57C5D8C8]
Track 5 accurately ripped (confidence 1) [8E2192C7]
Track 6 accurately ripped (confidence 1) [B58D47AF]
Track 7 accurately ripped (confidence 1) [6D6ABF4D]
Track 8 accurately ripped (confidence 1) [237AD689]
Track 9 accurately ripped (confidence 1) [8265E435]

All tracks accurately ripped

End of status report

cue
REM GENRE "Heavy Metal"
REM DATE 1984
REM DISCID 6E08C809
REM COMMENT "ExactAudioCopy v0.99pb5"
PERFORMER "MASS"
TITLE "War Law"
FILE "MASS - War Law.ape" WAVE
TRACK 01 AUDIO
TITLE "War-Law"
PERFORMER "MASS"
INDEX 01 00:00:00
TRACK 02 AUDIO
TITLE "Devils Gate"
PERFORMER "MASS"
FLAGS DCP
INDEX 00 04:47:72
INDEX 01 04:55:62
TRACK 03 AUDIO
TITLE "Loud and Proud"
PERFORMER "MASS"
FLAGS DCP
INDEX 00 08:26:53
INDEX 01 08:34:43
TRACK 04 AUDIO
TITLE "Fire at Night"
PERFORMER "MASS"
FLAGS DCP
INDEX 00 12:53:65
INDEX 01 13:01:55
TRACK 05 AUDIO
TITLE "See the Light"
PERFORMER "MASS"
FLAGS DCP
INDEX 00 16:16:63
INDEX 01 16:24:53
TRACK 06 AUDIO
TITLE "Lose and Bronze"
PERFORMER "MASS"
FLAGS DCP
INDEX 00 19:54:21
INDEX 01 20:02:11
TRACK 07 AUDIO
TITLE "Chained"
PERFORMER "MASS"
FLAGS DCP
INDEX 00 23:18:08
INDEX 01 23:25:73
TRACK 08 AUDIO
TITLE "Metal Hymn"
PERFORMER "MASS"
FLAGS DCP
INDEX 00 29:11:56
INDEX 01 29:19:46
TRACK 09 AUDIO
TITLE "Playing in a Rock'n Roll Band*"
PERFORMER "MASS"
FLAGS DCP
INDEX 00 33:11:63
INDEX 01 33:19:53

_________________
http://img254.imageshack.us/img254/1015 ... 743574.gif
http://img140.imageshack.us/img140/7192 ... arlogo.jpg


Top
 Profile  
 
 
PostPosted: 01 Nov 2010 
Генеральный thrasher
User avatar
Joined: 03 Oct 2008
Posts: 3449
Lоcаtion: Ханты-Мансийский АО
Age: 43
Name: Сергей
Спасибо! :true: :losik:


Top
 Profile  
 
 
PostPosted: 01 Nov 2010 
Труъ
Joined: 01 Jan 2010
Posts: 118
Lоcаtion: MetaLWarrioR
Name: Сергей
Спасибо большое!!!


Top
 Profile E-mail  
 
 
PostPosted: 01 Nov 2010 
Хиппей (support team)
User avatar
Joined: 30 Jul 2007
Posts: 106508
Lоcаtion: Киев (Kyiv, UA)
Age: 45
Name: Andrey
:thanx:


Хм, сначала подумал, что это я оформил первый пост :shok:
Володя, респект :true:

_________________


Top
 Profile E-mail  
 
 
PostPosted: 02 Nov 2010 
metallpaparazzy
User avatar
Joined: 20 Dec 2009
Posts: 674
Lоcаtion: Днепропетровск
Age: 43
Name: Геннадий
:thanx: клевая банда! :true:


Top
 Profile E-mail  
 
 
PostPosted: 03 Nov 2010 
Пионэръ
User avatar
Joined: 20 Jun 2010
Posts: 40
Lоcаtion: Москоw-Сити
Name: Димон
:thanx:

_________________
)†/_'†º¨ł


Top
 Profile  
 
 
PostPosted: 03 Nov 2010 
Old Time Rock`n`Roll
User avatar
Joined: 23 Jun 2008
Posts: 3354
Lоcаtion: г.Ульяновск
Age: 40
Name: Константин
Спасибо, группа ничем мне не запомнилась, но такую редкую вещь возьму обязательно. Фэнкс! :thanx:


Top
 Profile  
 
 
PostPosted: 08 Nov 2010 
Хиппей (support team)
User avatar
Joined: 30 Jul 2007
Posts: 106508
Lоcаtion: Киев (Kyiv, UA)
Age: 45
Name: Andrey
Ээммм.. Жалоба-пожелание :fingal:

Володь, нафига лося сжимать винраром максимально? :vic:
Мало того, что архив на 9 метров жирнее становится, так еще и на тормознутых компах полчаса распаковывается :bore:

Winrar - Метод сжатия - без сжатия :dance:

зы. Позже добавлю ссылку на другие обменники, а то через пару недель фолдырская пропадёт... :cow:

_________________


Top
 Profile E-mail  
 
 
PostPosted: 09 Nov 2010 
Персональный статус
User avatar
Joined: 02 Feb 2009
Posts: 236
Lоcаtion: Тульская область
Age: 52
Name: Владимир
Scatterbrain wrote:
Володь, нафига лося сжимать винраром максимально? :vic:
Мало того, что архив на 9 метров жирнее становится, так еще и на тормознутых компах полчаса распаковывается :bore:
Winrar - Метод сжатия - без сжатия :dance:


Я даже и не знаю с чего начать. Не согласен, в принципе ни с одним утверждением.
Winrar - Метод сжатия - без сжатия + информация для восстановления (3-5% по настроению)
Это стандартная практика и если я промахнулся, то наверняка заметил-бы разницу во времени создания архива
15-20 сек и около 2 минут - разница ощутимая на глаз. Но можно допустить, что отвлекся на пивко, телефон и тд.
Но это частный случай и если так, то виноват и исправлюсь.

А вот то что на макимальных сжатиях архив больше аж на 9 метров... не поверил и специально запаковал папку
размером 564 МБ (592 380 654 байт) двумя способами
без сжатия - 581 МБ (609 750 648 байт)
максимум - 581 МБ (610 099 066 байт)
везде добавлена инфа для восстановления3 процента
Как-то вот так.... :oops:

_________________
http://img254.imageshack.us/img254/1015 ... 743574.gif
http://img140.imageshack.us/img140/7192 ... arlogo.jpg


Top
 Profile  
 
 
PostPosted: 10 Nov 2010 
Хиппей (support team)
User avatar
Joined: 30 Jul 2007
Posts: 106508
Lоcаtion: Киев (Kyiv, UA)
Age: 45
Name: Andrey
crimson22 wrote:
везде добавлена инфа для восстановления 3 процента

Блииаа... Сорри, я это не учёл ваще :dash:

_________________


Top
 Profile E-mail  
 
 
PostPosted: 10 Nov 2010 
Персональный статус
User avatar
Joined: 02 Feb 2009
Posts: 236
Lоcаtion: Тульская область
Age: 52
Name: Владимир
Наверное здесь моя очередь делать вот так.... :dance:

_________________
http://img254.imageshack.us/img254/1015 ... 743574.gif
http://img140.imageshack.us/img140/7192 ... arlogo.jpg


Top
 Profile  
 
Display posts from previous:  Sort by  
Post new topic Reply to topic  [ 11 posts ] 

All times are UTC + 3 hours


Who is online

Users browsing this forum: No registered users and 1 guest


You cannot post new topics in this forum
You cannot reply to topics in this forum
You cannot edit your posts in this forum
You cannot delete your posts in this forum
You cannot post attachments in this forum

Search for:
Яндекс.Метрика
Powered by phpBB © 2000, 2002, 2005, 2007 phpBB Group