\m/ 80's metal \m/

Информационно-аналитический форум "80 см пыли" (In Search We Trust) "У нас никто никуда не спешит"
Me For You - http://me-4u.com
It is currently 24 Sep 2018

All times are UTC + 3 hours

Spoiler
Chat - temporary registration for foreign users (please leave your application here)







Post new topic Reply to topic  [ 8 posts ] 
Author Message
 
PostPosted: 25 Oct 2010 
Работнечег
User avatar
Joined: 28 Aug 2007
Posts: 5409
Lоcаtion: г. Москва
Age: 29
Name: Дима
Image

Band: Metal Church
Album: The Human Factor
Label: Sony Music Entertainment Inc.
Genre: Heavy/Thrash Metal
Country: USA
Format: Flac + Log + Cue/Covers
Size: 361 Mb/15 Mb

Line-Up:
Mike Howe : Vocals
John Marshall : Guitars
Craig Wells : Guitars
Duke Erickson : Bass
Kirk Arrington : Drums


Tracklist:
1. The Human Factor 05:00
2. Date With Poverty 05:20
3. The Final Word 06:00
4. In Mourning 06:02
5. In Harm's Way 07:00
6. In Due Time 04:05
7. Agent Green 05:58
8. Flee From Reality 04:12
9. Betrayed 04:33
10. The Fight Song 03:25
Total playing time 51:35


Spectrum
Image

LOG
Exact Audio Copy V0.99 prebeta 5 from 4. May 2009

EAC extraction logfile from 23. October 2010, 11:45

Metal Church / The Human Factor

Used drive : PIONEER DVD-RW DVR-116D Adapter: 0 ID: 0

Read mode : Secure
Utilize accurate stream : Yes
Defeat audio cache : Yes
Make use of C2 pointers : No

Read offset correction : 96
Overread into Lead-In and Lead-Out : No
Fill up missing offset samples with silence : Yes
Delete leading and trailing silent blocks : No
Null samples used in CRC calculations : Yes
Used interface : Native Win32 interface for Win NT & 2000

Used output format : User Defined Encoder
Selected bitrate : 32 kBit/s
Quality : High
Add ID3 tag : No
Command line compressor : C:\Program Files\Exact Audio Copy\Flac\flac.exe
Additional command line options : -6 -V %s


TOC of the extracted CD

Track | Start | Length | Start sector | End sector
---------------------------------------------------------
1 | 0:00.00 | 5:00.65 | 0 | 22564
2 | 5:00.65 | 5:19.60 | 22565 | 46549
3 | 10:20.50 | 6:00.52 | 46550 | 73601
4 | 16:21.27 | 6:01.18 | 73602 | 100694
5 | 22:22.45 | 7:00.42 | 100695 | 132236
6 | 29:23.12 | 4:05.08 | 132237 | 150619
7 | 33:28.20 | 5:57.47 | 150620 | 177441
8 | 39:25.67 | 4:12.45 | 177442 | 196386
9 | 43:38.37 | 4:32.00 | 196387 | 216786
10 | 48:10.37 | 3:25.53 | 216787 | 232214


Range status and errors

Selected range

Filename D:\Музыка\Lossless\Metal Church - The HUman Factor\Metal Church - The Human Factor.wav

Peak level 100.0 %
Range quality 100.0 %
Copy CRC DDA931BE
Copy OK

No errors occurred


AccurateRip summary

Track 1 accurately ripped (confidence 2) [0EB4627F]
Track 2 accurately ripped (confidence 2) [F7E4EB9C]
Track 3 accurately ripped (confidence 2) [916AEBBF]
Track 4 accurately ripped (confidence 2) [54229C46]
Track 5 accurately ripped (confidence 2) [AD2E8F7E]
Track 6 accurately ripped (confidence 2) [F788F906]
Track 7 accurately ripped (confidence 2) [38CDCD77]
Track 8 accurately ripped (confidence 2) [5F41BBD6]
Track 9 accurately ripped (confidence 2) [072B52A1]
Track 10 accurately ripped (confidence 2) [193188A4]

All tracks accurately ripped

End of status report

CUE
REM GENRE "Heavy Metal"
REM DATE 1991
REM DISCID 780C180A
REM COMMENT "ExactAudioCopy v0.99pb5"
PERFORMER "Metal Church"
TITLE "The Human Factor"
FILE "Metal Church - The Human Factor.flac" WAVE
TRACK 01 AUDIO
TITLE "The Human Factor"
PERFORMER "Metal Church"
INDEX 01 00:00:00
TRACK 02 AUDIO
TITLE "Date With Poverty"
PERFORMER "Metal Church"
INDEX 01 05:00:65
TRACK 03 AUDIO
TITLE "The Final Word"
PERFORMER "Metal Church"
INDEX 01 10:20:50
TRACK 04 AUDIO
TITLE "In Mourning"
PERFORMER "Metal Church"
INDEX 01 16:21:27
TRACK 05 AUDIO
TITLE "In Harm's Way"
PERFORMER "Metal Church"
INDEX 00 22:21:30
INDEX 01 22:22:45
TRACK 06 AUDIO
TITLE "In Due Time"
PERFORMER "Metal Church"
INDEX 01 29:23:12
TRACK 07 AUDIO
TITLE "Agent Green"
PERFORMER "Metal Church"
INDEX 01 33:28:20
TRACK 08 AUDIO
TITLE "Flee From Reality"
PERFORMER "Metal Church"
INDEX 01 39:25:67
TRACK 09 AUDIO
TITLE "Betrayed"
PERFORMER "Metal Church"
INDEX 00 43:37:27
INDEX 01 43:38:37
TRACK 10 AUDIO
TITLE "The Fight Song"
PERFORMER "Metal Church"
INDEX 00 48:09:37
INDEX 01 48:10:37


Ifolder.ru


Last edited by church on 03 Feb 2013, edited 2 times in total.

Top
 Profile E-mail  
 
 
PostPosted: 25 Oct 2010 
Gretzky must die
User avatar
Joined: 16 Sep 2010
Posts: 263
Lоcаtion: Московская обл.
Name: Андрей
О ! Це - ДИЛО ! Отличный альбом ! И вокал - в тему. СПАСИБО ОГРОМНОЕ !!! :true: :dance:


Top
 Profile  
 
 
PostPosted: 25 Oct 2010 
Позитивный Южанин
User avatar
Joined: 07 May 2010
Posts: 1620
Lоcаtion: КРЫМ
Age: 43
Name: Алексей
:thanx:

_________________
WATER'EM ALL!


Top
 Profile E-mail  
 
 
PostPosted: 25 Oct 2010 
А может смените мне статус?..
User avatar
Joined: 24 Dec 2008
Posts: 615
Age: 44
Name: Дмитрий
Спасибо!


Top
 Profile  
 
 
PostPosted: 25 Oct 2010 
metallpaparazzy
User avatar
Joined: 20 Dec 2009
Posts: 674
Lоcаtion: Днепропетровск
Age: 43
Name: Геннадий
andreycheb wrote:
О ! Це - ДИЛО ! Отличный альбом ! И вокал - в тему. СПАСИБО ОГРОМНОЕ !!!

присоединяюсь! :true: :thanx:


Top
 Profile E-mail  
 
 
PostPosted: 27 Jan 2013 
Хиппей (support team)
User avatar
Joined: 30 Jul 2007
Posts: 106542
Lоcаtion: Киев (Kyiv, UA)
Age: 45
Name: Andrey
Reup plz :oops:

_________________


Top
 Profile E-mail  
 
 
PostPosted: 03 Feb 2013 
Работнечег
User avatar
Joined: 28 Aug 2007
Posts: 5409
Lоcаtion: г. Москва
Age: 29
Name: Дима
Новая ссылка в первом посте ;)


Top
 Profile E-mail  
 
 
PostPosted: 03 Feb 2013 
Хиппей (support team)
User avatar
Joined: 30 Jul 2007
Posts: 106542
Lоcаtion: Киев (Kyiv, UA)
Age: 45
Name: Andrey
Дим, спасибо за обновление :thanx:

mirror: MultiUp l Narod

_________________


Top
 Profile E-mail  
 
Display posts from previous:  Sort by  
Post new topic Reply to topic  [ 8 posts ] 

All times are UTC + 3 hours


Who is online

Users browsing this forum: No registered users and 1 guest


You cannot post new topics in this forum
You cannot reply to topics in this forum
You cannot edit your posts in this forum
You cannot delete your posts in this forum
You cannot post attachments in this forum

Search for:
Яндекс.Метрика
Powered by phpBB © 2000, 2002, 2005, 2007 phpBB Group