\m/ 80's metal \m/

Информационно-аналитический форум "80 см пыли" (In Search We Trust) "У нас никто никуда не спешит"
Me For You - http://me-4u.com
It is currently 23 Sep 2018

All times are UTC + 3 hours

Spoiler
Chat - temporary registration for foreign users (please leave your application here)







Post new topic Reply to topic  [ 8 posts ] 
Author Message
 
PostPosted: 22 Oct 2010 
metallpaparazzy
User avatar
Joined: 20 Dec 2009
Posts: 674
Lоcаtion: Днепропетровск
Age: 43
Name: Геннадий
Mercyful Fate - Melissa
Image
Full-length, Roadrunner/Megaforce
October 30th, 1983

Lineup:

King Diamond : Vocals
Hank Shermann : Guitars
Michael Denner : Guitars
Timi Grabber : Bass
Kim Ruzz : Drums

Re-released August 30, 2005 as CD/DVD set with these tracks:
CD:
1. Evil (4:45)
2. Curse of the Pharaohs (3:57)
3. Into the Coven (5:11
4. At the Sound of the Demon Bell (5:22)
5. Black Funeral (2:49)
6. Satan's Fall (11:23)
7. Melissa (6:44)
8. Black Masses (Black Funeral 7" B-side) (4:31)
9. Curse of the Pharaohs (BBC Radio Session) (3:51)
10. Evil (BBC Radio Session) (4:02)
11. Satan's Fall (BBC Radio Session) (10:29)
12. Curse of the Pharaohs (Demo) (4:26)
13. Black Funeral (Demo) (2:54)

DVD:
1. Doomed by the Living Dead
2. Black Funeral
3. Curse of the Pharaohs
All recorded live at Dynamo, Eindhoven 1983. Features commentary by King
Diamond.

Total playing time 40:14

log
Отчёт EAC об извлечении, выполненном 1. октября 2010, 23:56 для диска:
Mercyful Fate / Melissa (2005 Remaster)

Дисковод: Optiarc DVD RW AD-7170S Adapter: 1 ID: 1
Режим чтения: Достоверный (C2: нет, Точный поток: да, Отключение кэша: да)
Коррекция смещения при чтении: 48
Способность читать области Lead-in и Lead-out : Нет

Выходной формат: Внутренние WAV-операции
44.100 Гц; 16 бит; стерео

Другие параметры:
Заполнение пропущенных сэмплов тишиной : Да
Удаление блоков с тишиной в начале и конце : Нет
Установленный внешний ASPI-интерфейс


Характеристики диапазона извлечения и сообщения об ошибках
Выбранный диапазон
Имя файла D:\METAL\ЛОСИ\МОИ\KING DIAMOND\Mercyful Fate - Melissa (2005 Remaster).wav

Пиковый уровень 96.6 %
Качество диапазона 100.0 %
CRC 75BADA04
Копирование... OK

Ошибок не произошло

cue
REM GENRE "Heavy Metal"
REM DATE 1983
REM DISCID BC10860D
REM COMMENT "ExactAudioCopy v0.95b4"
PERFORMER "Mercyful Fate"
TITLE "Melissa (2005 Remaster)"
FILE "Mercyful Fate - Melissa (2005 Remaster).wav" WAVE
TRACK 01 AUDIO
TITLE "Evil"
PERFORMER "Mercyful Fate"
INDEX 01 00:00:00
TRACK 02 AUDIO
TITLE "Curse Of The Pharaohs"
PERFORMER "Mercyful Fate"
INDEX 01 04:45:29
TRACK 03 AUDIO
TITLE "Into The Coven"
PERFORMER "Mercyful Fate"
INDEX 01 08:43:08
TRACK 04 AUDIO
TITLE "At The Sound Of The Demon Bell"
PERFORMER "Mercyful Fate"
INDEX 01 13:54:14
TRACK 05 AUDIO
TITLE "Black Funeral"
PERFORMER "Mercyful Fate"
INDEX 00 19:15:41
INDEX 01 19:16:58
TRACK 06 AUDIO
TITLE "Satan's Fall"
PERFORMER "Mercyful Fate"
INDEX 00 22:05:26
INDEX 01 22:06:30
TRACK 07 AUDIO
TITLE "Melissa"
PERFORMER "Mercyful Fate"
INDEX 00 33:28:50
INDEX 01 33:30:08
TRACK 08 AUDIO
TITLE "Black Masses"
PERFORMER "Mercyful Fate"
INDEX 00 40:09:62
INDEX 01 40:14:55
TRACK 09 AUDIO
TITLE "Curse Of The Pharaohs (BBC Radio 1 Session)"
PERFORMER "Mercyful Fate"
INDEX 00 44:45:02
INDEX 01 44:46:33
TRACK 10 AUDIO
TITLE "Evil (BBC Radio 1 Session)"
PERFORMER "Mercyful Fate"
INDEX 00 48:36:03
INDEX 01 48:37:39
TRACK 11 AUDIO
TITLE "Satan's Fall (BBC Radio 1 Session)"
PERFORMER "Mercyful Fate"
INDEX 00 52:38:44
INDEX 01 52:39:69
TRACK 12 AUDIO
TITLE "Curse Of The Pharaohs (Demo)"
PERFORMER "Mercyful Fate"
INDEX 00 63:07:64
INDEX 01 63:09:19
TRACK 13 AUDIO
TITLE "Black Funeral (Demo)"
PERFORMER "Mercyful Fate"
INDEX 00 67:34:34
INDEX 01 67:36:10


(FLAC) CD
http://ifolder.ru/19882875 part 1
http://ifolder.ru/19884169 part 2

Рип мой, с левандоса. :pardon: большой буклет присутствует, в нем куча клевых фоток... :true: если кому надо двд -- закину, там всего 3 песни , качество нормальное.


Last edited by metallroll on 22 Oct 2010, edited 2 times in total.

Top
 Profile E-mail  
 
 
PostPosted: 22 Oct 2010 
Позитивный Южанин
User avatar
Joined: 07 May 2010
Posts: 1620
Lоcаtion: КРЫМ
Age: 43
Name: Алексей
А чё за стадион такой на видео или опечатка...Этот Даймонд коммандос рулёззз! :true: Следующий тоже :oops:

_________________
WATER'EM ALL!


Top
 Profile E-mail  
 
 
PostPosted: 22 Oct 2010 
metallpaparazzy
User avatar
Joined: 20 Dec 2009
Posts: 674
Lоcаtion: Днепропетровск
Age: 43
Name: Геннадий
ALEXUMER wrote:
А чё за стадион такой на видео или опечатка...

это на М-А неучи, а я не заметил... :pardon:
пересмотрел специально, с кассеты оцыфровка, темновато местами, но не кретично. снято с нескольких камер, звук читаемый. есть немного помех, как всегда на старых вхс, но матерьяльчик хорош! :true:


Top
 Profile E-mail  
 
 
PostPosted: 22 Oct 2010 
Позитивный Южанин
User avatar
Joined: 07 May 2010
Posts: 1620
Lоcаtion: КРЫМ
Age: 43
Name: Алексей
Даймонда бутлегами в те времена просто завалили,я чёто смотрел правда давно,но в памяти эти чёрные фона навсегда запечатлелись и микрофон его козырный из костей огромных перемотанных электромантажным скотчем :true: :true: :true:

_________________
WATER'EM ALL!


Top
 Profile E-mail  
 
 
PostPosted: 22 Oct 2010 
metallpaparazzy
User avatar
Joined: 20 Dec 2009
Posts: 674
Lоcаtion: Днепропетровск
Age: 43
Name: Геннадий
ALEXUMER wrote:
микрофон его козырный из костей огромных перемотанных электромантажным скотчем

да-да, именно так :true:


Top
 Profile E-mail  
 
 
PostPosted: 23 Oct 2010 
Motörheadache
User avatar
Joined: 04 Feb 2010
Posts: 1294
Lоcаtion: Впереди- горы,позади-степи
Age: 45
Name: Александр
metallroll wrote:
пересмотрел специально, с кассеты оцыфровка, темновато местами, но не кретично. снято с нескольких камер, звук читаемый. есть немного помех, как всегда на старых вхс, но матерьяльчик хорош!

Игорёха Биффорд выкладывал как-то ещё на ннм....
Нормальное видео(учитывая год и раритетность)....
Даймонд там конечно демоничен до усерачки(уважаемые мною блэкеры -норвеги нервно курят в сторонке).....

_________________
Eine Nation, Ein Land, Eine Schnaps!

Наш священный долг:защищать Родину,и соблюдать правила личной гигиены....!


Top
 Profile E-mail  
 
 
PostPosted: 24 Oct 2010 
Хиппей (support team)
User avatar
Joined: 30 Jul 2007
Posts: 106481
Lоcаtion: Киев (Kyiv, UA)
Age: 45
Name: Andrey
:thanx: :true:

_________________


Top
 Profile E-mail  
 
 
PostPosted: 24 Oct 2010 
Power Metal Maniac
User avatar
Joined: 09 Aug 2008
Posts: 6303
Lоcаtion: Москва
Age: 40
Name: Егор
не поскупился в свое время и приобрел данное издание. :true: :true: :true: :true: :true:

_________________
Long Live Metal!


Top
 Profile  
 
Display posts from previous:  Sort by  
Post new topic Reply to topic  [ 8 posts ] 

All times are UTC + 3 hours


Who is online

Users browsing this forum: No registered users and 3 guests


You cannot post new topics in this forum
You cannot reply to topics in this forum
You cannot edit your posts in this forum
You cannot delete your posts in this forum
You cannot post attachments in this forum

Search for:
Яндекс.Метрика
Powered by phpBB © 2000, 2002, 2005, 2007 phpBB Group