\m/ 80's metal \m/

Информационно-аналитический форум "80 см пыли" (In Search We Trust) "У нас никто никуда не спешит"
Me For You - http://me-4u.com
It is currently 15 Nov 2018

All times are UTC + 3 hours

Spoiler
Chat - temporary registration for foreign users (please leave your application here)







Post new topic Reply to topic  [ 27 posts ]  Go to page Previous  1, 2
Author Message
 
PostPosted: 14 Oct 2010 
Генеральный thrasher
User avatar
Joined: 03 Oct 2008
Posts: 3496
Lоcаtion: Ханты-Мансийский АО
Age: 43
Name: Сергей
Image

Year:1988 (2004 Remastered)
Style:Thrash Metal
Country:Brasil
Audio:Flac+Cue+Log
Size:454Mb
Label:Marquee Records

Line-Up:
Edu: Bass
Decio: Guitars
Morto: Guitars, vocals
Alexandre: Drums, vocals

Tracklist:
1. Dirty Bitch
2. Fighting for the Bastards
3. Satanic Noise
4. Inquisition
5. Dead World
6. Jason
7. Restless Soul
8. Dark Dream
Bonus Live Tracks From Headthrasher's Live
09. Fucking All the Angels
10. Destructor of Heads
Bonus Fighting for the Bastards" demo
11. Fighting for the Bastards
12. Satanic Noise
13. Fucking All the Angels
14. Dead World
15. Dirty Bitch
16. Destructor of Heads
17. Jason (Live)

Cue
REM GENRE "Thrash Metal"
REM DISCID E4108911
REM COMMENT "ExactAudioCopy v0.99pb4"
PERFORMER "MX"
TITLE "Simoniacal"
FILE "MX - Simoniacal.flac" WAVE
TRACK 01 AUDIO
TITLE "Dirty Bitch"
PERFORMER "MX"
INDEX 01 00:00:00
TRACK 02 AUDIO
TITLE "Fighting For The Bastards"
PERFORMER "MX"
INDEX 00 02:04:26
INDEX 01 02:06:26
TRACK 03 AUDIO
TITLE "Satanic Noise"
PERFORMER "MX"
INDEX 00 06:04:56
INDEX 01 06:06:56
TRACK 04 AUDIO
TITLE "Inquisition"
PERFORMER "MX"
INDEX 00 10:10:59
INDEX 01 10:12:58
TRACK 05 AUDIO
TITLE "Dead World"
PERFORMER "MX"
INDEX 00 13:06:24
INDEX 01 13:08:24
TRACK 06 AUDIO
TITLE "Jason"
PERFORMER "MX"
INDEX 00 17:04:64
INDEX 01 17:06:64
TRACK 07 AUDIO
TITLE "Restless Soul"
PERFORMER "MX"
INDEX 00 22:12:72
INDEX 01 22:14:71
TRACK 08 AUDIO
TITLE "Dark Dream"
PERFORMER "MX"
INDEX 00 26:40:74
INDEX 01 26:42:73
TRACK 09 AUDIO
TITLE "Fucking All The Angels (Live)*"
PERFORMER "MX"
INDEX 00 30:06:25
INDEX 01 30:08:25
TRACK 10 AUDIO
TITLE "Destructor Of Heads (Live)*"
PERFORMER "MX"
INDEX 01 34:12:41
TRACK 11 AUDIO
TITLE "Fighting For The Bastards (Demo)*"
PERFORMER "MX"
INDEX 00 40:58:24
INDEX 01 40:59:24
TRACK 12 AUDIO
TITLE "Satanic Noise (Demo)*"
PERFORMER "MX"
INDEX 00 45:18:13
INDEX 01 45:20:12
TRACK 13 AUDIO
TITLE "Fucking All The Angels (Demo)*"
PERFORMER "MX"
INDEX 00 49:30:46
INDEX 01 49:32:44
TRACK 14 AUDIO
TITLE "Dead World (Demo)*"
PERFORMER "MX"
INDEX 00 52:43:54
INDEX 01 52:45:54
TRACK 15 AUDIO
TITLE "Dirty Bitch (Demo)*"
PERFORMER "MX"
INDEX 00 57:01:29
INDEX 01 57:03:29
TRACK 16 AUDIO
TITLE "Destructor Of Heads (Demo)*"
PERFORMER "MX"
INDEX 00 59:12:32
INDEX 01 59:14:31
TRACK 17 AUDIO
TITLE "Jason (Live) (Demo)*"
PERFORMER "MX"
INDEX 00 65:10:65
INDEX 01 65:12:57


Log
Exact Audio Copy V0.99 prebeta 4 from 23. January 2008

Отчёт EAC об извлечении, выполненном 26. июля 2010, 13:18

MX / Simoniacal

Дисковод: TSSTcorpCDDVDW SH-S202N Adapter: 0 ID: 1

Режим чтения : Достоверность
Использование точного потока : Да
Отключение кэша аудио : Да
Использование указателей C2 : Нет

Коррекция смещения при чтении : 6
Способность читать области Lead-in и Lead-out : Нет
Заполнение пропущенных сэмплов тишиной : Да
Удаление блоков с тишиной в начале и конце : Нет
При вычислениях CRC использовались нулевые сэмплы : Да
Интерфейс : Установленный внешний ASPI-интерфейс

Выходной формат : Пользовательский кодировщик
Выбранный битрейт : 768 kBit/s
Качество : Высокий
Добавление ID3-тэга : Нет
Утилита сжатия : C:\Program Files\Exact Audio Copy\FLAC\FLAC.EXE
Дополнительные параметры : -6 -V -T "ARTIST=%a" -T "TITLE=%t" -T "ALBUM=%g" -T "DATE=%y" -T "TRACKNUMBER=%n" -T "GENRE=%m" -T "COMMENT=%e" %s -o %d


TOC извлечённого CD

Трек | Старт | Длительность | Начальный сектор | Конечный сектор
---------------------------------------------------------------------
1 | 0:00.00 | 2:06.26 | 0 | 9475
2 | 2:06.26 | 4:00.30 | 9476 | 27505
3 | 6:06.56 | 4:06.02 | 27506 | 45957
4 | 10:12.58 | 2:55.41 | 45958 | 59123
5 | 13:08.24 | 3:58.40 | 59124 | 77013
6 | 17:06.64 | 5:08.07 | 77014 | 100120
7 | 22:14.71 | 4:28.02 | 100121 | 120222
8 | 26:42.73 | 3:25.27 | 120223 | 135624
9 | 30:08.25 | 4:04.16 | 135625 | 153940
10 | 34:12.41 | 6:46.58 | 153941 | 184448
11 | 40:59.24 | 4:20.63 | 184449 | 204011
12 | 45:20.12 | 4:12.32 | 204012 | 222943
13 | 49:32.44 | 3:13.10 | 222944 | 237428
14 | 52:45.54 | 4:17.50 | 237429 | 256753
15 | 57:03.29 | 2:11.02 | 256754 | 266580
16 | 59:14.31 | 5:58.26 | 266581 | 293456
17 | 65:12.57 | 5:20.26 | 293457 | 317482


Характеристики диапазона извлечения и сообщения об ошибках

Выбранный диапазон

Имя файла D:\Lossless Music\MX - Simoniacal.wav

Пиковый уровень 98.8 %
Качество диапазона 100.0 %
CRC копии 9312EBD5
Копирование... OK

Ошибок не произошло


AccurateRip: сводка

Трек 1 точное извлечение (доверие 2) [38609B2D]
Трек 2 точное извлечение (доверие 2) [14FA7EBD]
Трек 3 точное извлечение (доверие 2) [805D6F11]
Трек 4 точное извлечение (доверие 2) [4D94C3EF]
Трек 5 точное извлечение (доверие 2) [5788308F]
Трек 6 точное извлечение (доверие 2) [8FBAD485]
Трек 7 точное извлечение (доверие 2) [6E2A4E8E]
Трек 8 точное извлечение (доверие 2) [9F6B05CE]
Трек 9 точное извлечение (доверие 2) [5A177C09]
Трек 10 точное извлечение (доверие 2) [DF8D32AE]
Трек 11 точное извлечение (доверие 2) [0476DFB5]
Трек 12 точное извлечение (доверие 2) [E3A82420]
Трек 13 точное извлечение (доверие 2) [30984F51]
Трек 14 точное извлечение (доверие 2) [C005BB59]
Трек 15 точное извлечение (доверие 2) [DCAD5E19]
Трек 16 точное извлечение (доверие 2) [74E7BB15]
Трек 17 точное извлечение (доверие 2) [9B373B11]

Все треки извлечены точно

Конец отчёта


Simoniacal


Last edited by thorbeorn on 12 Aug 2016, edited 1 time in total.

Top
 Profile  
 
 
PostPosted: 12 Aug 2016 
Генеральный thrasher
User avatar
Joined: 03 Oct 2008
Posts: 3496
Lоcаtion: Ханты-Мансийский АО
Age: 43
Name: Сергей
То есть до этого ты не слушал?А насчёт Серёги не знаю...Пусть послушает и скажет.Тем более все альбомы здесь вроде...


Top
 Profile  
 
 
PostPosted: 12 Aug 2016 
Генеральный thrasher
User avatar
Joined: 03 Oct 2008
Posts: 3496
Lоcаtion: Ханты-Мансийский АО
Age: 43
Name: Сергей
Jackdevil всё же круче... :meloman:


Top
 Profile  
 
 
PostPosted: 12 Aug 2016 
Хиппей (support team)
User avatar
Joined: 30 Jul 2007
Posts: 108005
Lоcаtion: Киев (Kyiv, UA)
Age: 45
Name: Andrey
thorbeorn wrote:
То есть до этого ты не слушал?

Слушал, и явно у нас же и описывал альбомы. Но не помню их совершенно. А дофорумной эпохи альбомы этой группы полностью, конечно, не слушал. Знал лишь название.

_________________


Top
 Profile E-mail  
 
 
PostPosted: 12 Aug 2016 
консэрваторъ
Joined: 11 Aug 2007
Posts: 16174
Lоcаtion: Псков
Age: 44
Name: Сергей
Не, не моё это...

_________________
THRASH 'EM ALL


Top
 Profile E-mail  
 
 
PostPosted: 12 Aug 2016 
Генеральный thrasher
User avatar
Joined: 03 Oct 2008
Posts: 3496
Lоcаtion: Ханты-Мансийский АО
Age: 43
Name: Сергей
Не, не моё это...


Даже не сомневался!А это - viewtopic.php?f=187&t=13681 ?


Top
 Profile  
 
 
PostPosted: 13 Aug 2016 
консэрваторъ
Joined: 11 Aug 2007
Posts: 16174
Lоcаtion: Псков
Age: 44
Name: Сергей
:arrov: viewtopic.php?p=271920#p271920

_________________
THRASH 'EM ALL


Top
 Profile E-mail  
 
 
PostPosted: 13 Aug 2016 
Хиппей (support team)
User avatar
Joined: 30 Jul 2007
Posts: 108005
Lоcаtion: Киев (Kyiv, UA)
Age: 45
Name: Andrey
Да все тянут. Просто или тупят, или ленятся.
Слушаю этот альбом ща - нравится. И Серёге явно понравится. Наша тема точно :lob: :lob: :lob:

Не так мощно, как Обердоз или Сепа, зато скоростей валом :kro:
В общем, более Креаторовский трэшак, чем бразильский =)

Как выяснилось, это я о втором альбоме говорил... :oops:

Первый же на порядок проще, сырее и не такой интересный, в общем.

6/10

В топ его не вношу, в общем.

И по изданию. Это здесь рип с достаточно убитого винила (не путать с бонусам на этом переиздании, там ваще ливник), так что хз, зачем такое фуфло издавать на дисках было. Для коллекции онли? :pardon:
Ну и сам звук плохой. Кстати, вторая сторона винила.. имеет несколько провалов и просвтистов, типичных для кассетной ленты. Так что ещё один вывод напрашивается сам :fingal:

_________________


Top
 Profile E-mail  
 
Display posts from previous:  Sort by  
Post new topic Reply to topic  [ 27 posts ]  Go to page Previous  1, 2

All times are UTC + 3 hours


Who is online

Users browsing this forum: No registered users and 4 guests


You cannot post new topics in this forum
You cannot reply to topics in this forum
You cannot edit your posts in this forum
You cannot delete your posts in this forum
You cannot post attachments in this forum

Search for:
Яндекс.Метрика
Powered by phpBB © 2000, 2002, 2005, 2007 phpBB Group