\m/ 80's metal \m/

Информационно-аналитический форум "80 см пыли" (In Search We Trust) "У нас никто никуда не спешит"
Me For You - http://me-4u.com
It is currently 22 Sep 2018

All times are UTC + 3 hours

Spoiler
Chat - temporary registration for foreign users (please leave your application here)







Post new topic Reply to topic  [ 17 posts ] 
Author Message
 
PostPosted: 14 Oct 2010 
Генеральный thrasher
User avatar
Joined: 03 Oct 2008
Posts: 3449
Lоcаtion: Ханты-Мансийский АО
Age: 43
Name: Сергей
Image
Year:1989 (2004 Remastered)
Style:Thrash Metal
Country:Brasil
Audio:Flac+Cue+Log
Size:479Mb
Marquee Records

Line-Up:
Cico Comelli: Bass
Decio: Guitars
Morto: Guitars, vocals
Alexandre: Drums, vocals

Tracklist:
1. Mental Slavery
2. Behind his Glasses
3. Fake Truth
4. The Guf
5. Obvious, Who Isn't?
6. I Will be Alive
7. I'll Bring You with Me
8. What am I?
9. Ritual of Strings
10. No Violence
Bonus Live Tracks (Recorded at Teatro Mambembe'88)
11. Dirty Bitch/Fighting for the Bastards
12. Satanic Noise
13. Inquisition
14. Dead World
15. Jason
16. Restless Soul
17. Dark Dreams
18. Destructor of Heads

Cue
REM DISCID 0310CD12
REM COMMENT "ExactAudioCopy v0.99pb4"
PERFORMER "MX"
TITLE "Mental slavery"
FILE "MX - Mental slavery.flac" WAVE
TRACK 01 AUDIO
TITLE "Mental slavery"
PERFORMER "MX"
INDEX 01 00:00:00
TRACK 02 AUDIO
TITLE "Behind his glasses"
PERFORMER "MX"
INDEX 00 02:44:56
INDEX 01 02:46:56
TRACK 03 AUDIO
TITLE "Fake truth"
PERFORMER "MX"
INDEX 00 06:17:29
INDEX 01 06:19:29
TRACK 04 AUDIO
TITLE "The guf"
PERFORMER "MX"
INDEX 00 09:27:03
INDEX 01 09:29:03
TRACK 05 AUDIO
TITLE "Obvious, who isn't?"
PERFORMER "MX"
INDEX 00 13:28:40
INDEX 01 13:30:40
TRACK 06 AUDIO
TITLE "I will be alive"
PERFORMER "MX"
INDEX 00 17:00:41
INDEX 01 17:02:40
TRACK 07 AUDIO
TITLE "I will bring you with me"
PERFORMER "MX"
INDEX 00 20:00:55
INDEX 01 20:02:55
TRACK 08 AUDIO
TITLE "What am I"
PERFORMER "MX"
INDEX 00 24:35:63
INDEX 01 24:37:63
TRACK 09 AUDIO
TITLE "Ritual of strings"
PERFORMER "MX"
INDEX 00 28:02:32
INDEX 01 28:04:32
TRACK 10 AUDIO
TITLE "No violence"
PERFORMER "MX"
INDEX 00 28:56:44
INDEX 01 28:58:43
TRACK 11 AUDIO
TITLE "Dirty bitch - Live"
PERFORMER "MX"
INDEX 00 32:47:22
INDEX 01 32:49:22
TRACK 12 AUDIO
TITLE "Satanic noise - Live"
PERFORMER "MX"
INDEX 00 40:08:74
INDEX 01 40:10:74
TRACK 13 AUDIO
TITLE "Inquisition - Live"
PERFORMER "MX"
INDEX 00 44:21:19
INDEX 01 44:23:19
TRACK 14 AUDIO
TITLE "Dead world - Live"
PERFORMER "MX"
INDEX 00 47:13:28
INDEX 01 47:15:28
TRACK 15 AUDIO
TITLE "Jason - Live"
PERFORMER "MX"
INDEX 00 51:10:17
INDEX 01 51:12:17
TRACK 16 AUDIO
TITLE "Restless soul - Live"
PERFORMER "MX"
INDEX 00 56:18:26
INDEX 01 56:20:26
TRACK 17 AUDIO
TITLE "Dark dreams - Live"
PERFORMER "MX"
INDEX 00 62:37:70
INDEX 01 62:39:70
TRACK 18 AUDIO
TITLE "Destructor of heads - Live"
PERFORMER "MX"
INDEX 00 65:53:01
INDEX 01 65:55:00


Log
Exact Audio Copy V0.99 prebeta 4 from 23. January 2008

Отчёт EAC об извлечении, выполненном 26. июля 2010, 13:05

MX / Mental slavery

Дисковод: TSSTcorpCDDVDW SH-S202N Adapter: 0 ID: 1

Режим чтения : Достоверность
Использование точного потока : Да
Отключение кэша аудио : Да
Использование указателей C2 : Нет

Коррекция смещения при чтении : 6
Способность читать области Lead-in и Lead-out : Нет
Заполнение пропущенных сэмплов тишиной : Да
Удаление блоков с тишиной в начале и конце : Нет
При вычислениях CRC использовались нулевые сэмплы : Да
Интерфейс : Установленный внешний ASPI-интерфейс

Выходной формат : Пользовательский кодировщик
Выбранный битрейт : 768 kBit/s
Качество : Высокий
Добавление ID3-тэга : Нет
Утилита сжатия : C:\Program Files\Exact Audio Copy\FLAC\FLAC.EXE
Дополнительные параметры : -6 -V -T "ARTIST=%a" -T "TITLE=%t" -T "ALBUM=%g" -T "DATE=%y" -T "TRACKNUMBER=%n" -T "GENRE=%m" -T "COMMENT=%e" %s -o %d


TOC извлечённого CD

Трек | Старт | Длительность | Начальный сектор | Конечный сектор
---------------------------------------------------------------------
1 | 0:00.00 | 2:46.56 | 0 | 12505
2 | 2:46.56 | 3:32.48 | 12506 | 28453
3 | 6:19.29 | 3:09.49 | 28454 | 42677
4 | 9:29.03 | 4:01.37 | 42678 | 60789
5 | 13:30.40 | 3:32.00 | 60790 | 76689
6 | 17:02.40 | 3:00.15 | 76690 | 90204
7 | 20:02.55 | 4:35.08 | 90205 | 110837
8 | 24:37.63 | 3:26.44 | 110838 | 126331
9 | 28:04.32 | 0:54.11 | 126332 | 130392
10 | 28:58.43 | 3:50.54 | 130393 | 147696
11 | 32:49.22 | 7:21.52 | 147697 | 180823
12 | 40:10.74 | 4:12.20 | 180824 | 199743
13 | 44:23.19 | 2:52.09 | 199744 | 212652
14 | 47:15.28 | 3:56.64 | 212653 | 230416
15 | 51:12.17 | 5:08.09 | 230417 | 253525
16 | 56:20.26 | 6:19.44 | 253526 | 281994
17 | 62:39.70 | 3:15.05 | 281995 | 296624
18 | 65:55.00 | 5:46.00 | 296625 | 322574


Характеристики диапазона извлечения и сообщения об ошибках

Выбранный диапазон

Имя файла D:\Lossless Music\MX - Mental slavery.wav

Пиковый уровень 98.8 %
Качество диапазона 100.0 %
CRC копии 7CA048F8
Копирование... OK

Ошибок не произошло


AccurateRip: сводка

Трек 1 нет в базе данных
Трек 2 нет в базе данных
Трек 3 нет в базе данных
Трек 4 нет в базе данных
Трек 5 нет в базе данных
Трек 6 нет в базе данных
Трек 7 нет в базе данных
Трек 8 нет в базе данных
Трек 9 нет в базе данных
Трек 10 нет в базе данных
Трек 11 нет в базе данных
Трек 12 нет в базе данных
Трек 13 нет в базе данных
Трек 14 нет в базе данных
Трек 15 нет в базе данных
Трек 16 нет в базе данных
Трек 17 нет в базе данных
Трек 18 нет в базе данных

Ни одного трека нет в базе AccurateRip

Конец отчёта


Mental Slavery


Last edited by thorbeorn on 12 Aug 2016, edited 1 time in total.

Top
 Profile  
 
 
PostPosted: 14 Oct 2010 
Генеральный thrasher
User avatar
Joined: 03 Oct 2008
Posts: 3449
Lоcаtion: Ханты-Мансийский АО
Age: 43
Name: Сергей
Очень люблю бразильские трэшевые банды.Отличное издание с кучей бонусов.Это надо иметь у себя.Мощный зубодробительный трэш.Как обычно рип с моего диска.


Top
 Profile  
 
 
PostPosted: 14 Oct 2010 
Позитивный Южанин
User avatar
Joined: 07 May 2010
Posts: 1620
Lоcаtion: КРЫМ
Age: 43
Name: Алексей
:true: :thanx: +SARCOFAGO/SEPULTURA/SEXTRASH/SLAVERY/RDP/DORSAL ATLANTICA..... :true:

_________________
WATER'EM ALL!


Top
 Profile E-mail  
 
 
PostPosted: 14 Oct 2010 
Генеральный thrasher
User avatar
Joined: 03 Oct 2008
Posts: 3449
Lоcаtion: Ханты-Мансийский АО
Age: 43
Name: Сергей
ALEXUMER wrote:
:true: :thanx: +SARCOFAGO/SEPULTURA/SEXTRASH/SLAVERY/RDP/DORSAL ATLANTICA..... :true:


Совершенно верно,Алексей.


Top
 Profile  
 
 
PostPosted: 14 Oct 2010 
Доктор энтомологии
User avatar
Joined: 22 Jan 2009
Posts: 9328
Lоcаtion: Даугавпилс
Age: 43
Name: Алексей
:true: круто!
спсибо большое :thanx:


Top
 Profile  
 
 
PostPosted: 14 Oct 2010 
*** Умер ***
User avatar
Joined: 25 Apr 2009
Posts: 2188
Lоcаtion: Санкт-Петербург
Age: 32
Name: Кирилл
:thanx:


Top
 Profile E-mail  
 
 
PostPosted: 14 Oct 2010 
Хиппей (support team)
User avatar
Joined: 30 Jul 2007
Posts: 106449
Lоcаtion: Киев (Kyiv, UA)
Age: 45
Name: Andrey
Серёга, спасибо! :true:

mirror: iFolder l Narod l M-Cloud

_________________


Top
 Profile E-mail  
 
 
PostPosted: 17 Oct 2010 
Thrasher
User avatar
Joined: 07 Oct 2007
Posts: 2756
Lоcаtion: Russia, Moscow
Age: 34
Name: Drunk & Evil
:thanx:

_________________
ВОДКА, БАБЫ И БЛЮЗ / 40° till death... :bodun:
One time we saw some hookers, but when we got closer, we realised it was Mötley Crüe. ©


Top
 Profile  
 
 
PostPosted: 11 Aug 2016 
5cm
User avatar
Joined: 28 Mar 2013
Posts: 66
Age: 27
Name: Erik
Hi friends, please can share a new link !!

Thanks !!


Top
 Profile E-mail  
 
 
PostPosted: 11 Aug 2016 
Хиппей (support team)
User avatar
Joined: 30 Jul 2007
Posts: 106449
Lоcаtion: Киев (Kyiv, UA)
Age: 45
Name: Andrey
О, а этот альбом я качал. Ща поищу :oops:

_________________


Top
 Profile E-mail  
 
 
PostPosted: 11 Aug 2016 
5cm
User avatar
Joined: 28 Mar 2013
Posts: 66
Age: 27
Name: Erik
I have found in Rutracker but no seeds to complete the download :(


Top
 Profile E-mail  
 
 
PostPosted: 11 Aug 2016 
Хиппей (support team)
User avatar
Joined: 30 Jul 2007
Posts: 106449
Lоcаtion: Киев (Kyiv, UA)
Age: 45
Name: Andrey
Не нашёл у себя. На втором винте явно. Я его давно отключил :lloo:

_________________


Top
 Profile E-mail  
 
 
PostPosted: 11 Aug 2016 
Хиппей (support team)
User avatar
Joined: 30 Jul 2007
Posts: 106449
Lоcаtion: Киев (Kyiv, UA)
Age: 45
Name: Andrey
I have found in Rutracker but no seeds to complete the download :(

Wait a little, there are seed's :kro:

_________________


Top
 Profile E-mail  
 
 
PostPosted: 12 Aug 2016 
Генеральный thrasher
User avatar
Joined: 03 Oct 2008
Posts: 3449
Lоcаtion: Ханты-Мансийский АО
Age: 43
Name: Сергей
Новая ссылка добавлена.

New link added...


Top
 Profile  
 
 
PostPosted: 12 Aug 2016 
Хиппей (support team)
User avatar
Joined: 30 Jul 2007
Posts: 106449
Lоcаtion: Киев (Kyiv, UA)
Age: 45
Name: Andrey
:thanx:

_________________


Top
 Profile E-mail  
 
 
PostPosted: 12 Aug 2016 
Хиппей (support team)
User avatar
Joined: 30 Jul 2007
Posts: 106449
Lоcаtion: Киев (Kyiv, UA)
Age: 45
Name: Andrey
Image

https://rutracker.org/forum/viewtopic.php?t=3172183

_________________


Top
 Profile E-mail  
 
 
PostPosted: 13 Aug 2016 
Хиппей (support team)
User avatar
Joined: 30 Jul 2007
Posts: 106449
Lоcаtion: Киев (Kyiv, UA)
Age: 45
Name: Andrey
И всё же после нескольких часов и раз прослушиваний, решил забрать данный альбом (без бонусов. конечно, хоть и ивьём гурппа была хороша тоже), в топ личный.
Разнообразный скоростной и техничный трэш. Нетривиальный. Хотя, вроде и вокал и обычный и гитарки так себе, но само сочетание музыки и слов доставляет :meloman:

7+/10

_________________


Top
 Profile E-mail  
 
Display posts from previous:  Sort by  
Post new topic Reply to topic  [ 17 posts ] 

All times are UTC + 3 hours


Who is online

Users browsing this forum: No registered users and 1 guest


You cannot post new topics in this forum
You cannot reply to topics in this forum
You cannot edit your posts in this forum
You cannot delete your posts in this forum
You cannot post attachments in this forum

Search for:
Яндекс.Метрика
Powered by phpBB © 2000, 2002, 2005, 2007 phpBB Group