\m/ 80's metal \m/

Информационно-аналитический форум "80 см пыли" (In Search We Trust) "У нас никто никуда не спешит"
Me For You - http://me-4u.com
It is currently 23 Sep 2018

All times are UTC + 3 hours

Spoiler
Chat - temporary registration for foreign users (please leave your application here)







Post new topic Reply to topic  [ 9 posts ] 
Author Message
 
PostPosted: 24 Sep 2010 
Работнечег
User avatar
Joined: 28 Aug 2007
Posts: 5409
Lоcаtion: г. Москва
Age: 29
Name: Дима
Image
Band: Mirage
Album: ... And The Earth Shall Crumble
Label: Karthago Records
Genre: Heavy Metal
Country: Denmark
Format: Flac + Log + Cue + Covers
Size: 522 Mb

Line-Up:
Torben Deen (Jensen) - vocals (Arctic, The Torbens, Reality Bites, Slinger, Motive)
Jan Buller - guitar (Third Stone From The Sun)
Sten Roland - bass (Third Stone From The Sun)
Nick Gaid (Gade) - drums
Morgue Law (Mogens Laursen) - keyboards (Third Stone From the Sun, Motive)


Tracklist:
1. Out There (Survivors) 04:04
2. So Many Years Ago 04:54
3. Lords in Space and Time 03:22
4. Apostle of Hell 06:09
5. Heading for The Sun 04:06
6. Killer Dwarf Shorty 05:44
7. Hellbound 03:40
8. Punisher 04:47
9. Shave tt all off 03:39
10. Savin' Love 03:58
11. The Emperor 04:28
12. Guiding Light 03:13
13. Get Down to Love 04:47
14. Searching 04:39
15. Far Away 05:18
16. Turn On The Darkness 04:57
Total playing time 01:11:45

Spectrum
Image

LOG
Exact Audio Copy V0.99 prebeta 5 from 4. May 2009

EAC extraction logfile from 16. September 2010, 14:07

Mirage / ...And The Earth Shall Crumble

Used drive : PIONEER DVD-RW DVR-116D Adapter: 0 ID: 0

Read mode : Secure
Utilize accurate stream : Yes
Defeat audio cache : Yes
Make use of C2 pointers : No

Read offset correction : 96
Overread into Lead-In and Lead-Out : No
Fill up missing offset samples with silence : Yes
Delete leading and trailing silent blocks : No
Null samples used in CRC calculations : Yes
Used interface : Native Win32 interface for Win NT & 2000

Used output format : User Defined Encoder
Selected bitrate : 32 kBit/s
Quality : High
Add ID3 tag : No
Command line compressor : C:\Program Files\Exact Audio Copy\Flac\flac.exe
Additional command line options : -6 -V %s


TOC of the extracted CD

Track | Start | Length | Start sector | End sector
---------------------------------------------------------
1 | 0:00.00 | 4:03.49 | 0 | 18273
2 | 4:03.49 | 4:54.10 | 18274 | 40333
3 | 8:57.59 | 3:22.10 | 40334 | 55493
4 | 12:19.69 | 6:08.65 | 55494 | 83158
5 | 18:28.59 | 4:06.22 | 83159 | 101630
6 | 22:35.06 | 5:43.49 | 101631 | 127404
7 | 28:18.55 | 3:40.33 | 127405 | 143937
8 | 31:59.13 | 4:46.57 | 143938 | 165444
9 | 36:45.70 | 3:39.23 | 165445 | 181892
10 | 40:25.18 | 3:58.27 | 181893 | 199769
11 | 44:23.45 | 4:28.39 | 199770 | 219908
12 | 48:52.09 | 3:12.62 | 219909 | 234370
13 | 52:04.71 | 4:46.58 | 234371 | 255878
14 | 56:51.54 | 4:39.22 | 255879 | 276825
15 | 61:31.01 | 5:18.04 | 276826 | 300679
16 | 66:49.05 | 4:57.19 | 300680 | 322973


Range status and errors

Selected range

Filename D:\Музыка\Lossless\Mirage - ... And The Earth Shall Crumble (2002)\Mirage - ...And The Earth Shall Crumble.wav

Peak level 100.0 %
Range quality 100.0 %
Copy CRC F6696BA6
Copy OK

No errors occurred


AccurateRip summary

Track 1 accurately ripped (confidence 1) [3F938705]
Track 2 accurately ripped (confidence 1) [A34E51C1]
Track 3 accurately ripped (confidence 1) [BCEB280C]
Track 4 accurately ripped (confidence 1) [EDEAE5A0]
Track 5 accurately ripped (confidence 1) [0AF218AE]
Track 6 accurately ripped (confidence 1) [CD0BA2B6]
Track 7 accurately ripped (confidence 1) [A0BF5D3B]
Track 8 accurately ripped (confidence 1) [837F89A2]
Track 9 accurately ripped (confidence 1) [65C674DE]
Track 10 accurately ripped (confidence 1) [8C2B4CB9]
Track 11 accurately ripped (confidence 1) [A26C6D0E]
Track 12 accurately ripped (confidence 1) [7A491746]
Track 13 accurately ripped (confidence 1) [D1CAAD62]
Track 14 accurately ripped (confidence 1) [A0BA0813]
Track 15 accurately ripped (confidence 1) [279CB784]
Track 16 accurately ripped (confidence 1) [128159F3]

All tracks accurately ripped

End of status report

CUE
REM GENRE "Hard Rock"
REM DATE 2002
REM DISCID C310D210
REM COMMENT "ExactAudioCopy v0.99pb5"
PERFORMER "Mirage"
TITLE "...And The Earth Shall Crumble"
FILE "Mirage - ...And The Earth Shall Crumble.flac" WAVE
TRACK 01 AUDIO
TITLE "Out There (Survivors)"
PERFORMER "Mirage"
FLAGS PRE
INDEX 01 00:00:00
TRACK 02 AUDIO
TITLE "So Many Years Ago"
PERFORMER "Mirage"
FLAGS PRE
INDEX 01 04:03:49
TRACK 03 AUDIO
TITLE "Lords In Space And Time"
PERFORMER "Mirage"
FLAGS PRE
INDEX 01 08:57:59
TRACK 04 AUDIO
TITLE "Apostle Of Hell"
PERFORMER "Mirage"
FLAGS PRE
INDEX 01 12:19:69
TRACK 05 AUDIO
TITLE "Heading For The Sun"
PERFORMER "Mirage"
FLAGS PRE
INDEX 01 18:28:59
TRACK 06 AUDIO
TITLE "Killer Dwarf Shorty"
PERFORMER "Mirage"
FLAGS PRE
INDEX 01 22:35:06
TRACK 07 AUDIO
TITLE "Hellbound"
PERFORMER "Mirage"
FLAGS PRE
INDEX 01 28:18:55
TRACK 08 AUDIO
TITLE "Punisher"
PERFORMER "Mirage"
FLAGS PRE
INDEX 01 31:59:13
TRACK 09 AUDIO
TITLE "Shave It All Off"
PERFORMER "Mirage"
FLAGS PRE
INDEX 01 36:45:70
TRACK 10 AUDIO
TITLE "Savin' Love"
PERFORMER "Mirage"
FLAGS PRE
INDEX 01 40:25:18
TRACK 11 AUDIO
TITLE "The Emperor"
PERFORMER "Mirage"
FLAGS PRE
INDEX 01 44:23:45
TRACK 12 AUDIO
TITLE "Guiding Light"
PERFORMER "Mirage"
FLAGS PRE
INDEX 01 48:52:09
TRACK 13 AUDIO
TITLE "Get Down To Love"
PERFORMER "Mirage"
FLAGS PRE
INDEX 01 52:04:71
TRACK 14 AUDIO
TITLE "Searching"
PERFORMER "Mirage"
FLAGS PRE
INDEX 01 56:51:54
TRACK 15 AUDIO
TITLE "Far Away"
PERFORMER "Mirage"
FLAGS PRE
INDEX 01 61:31:01
TRACK 16 AUDIO
TITLE "Turn On The Darkness"
PERFORMER "Mirage"
FLAGS PRE
INDEX 01 66:49:05


phpBB [youtube]

Narod.ru


Top
 Profile E-mail  
 
 
PostPosted: 24 Sep 2010 
Хиппей (support team)
User avatar
Joined: 30 Jul 2007
Posts: 106487
Lоcаtion: Киев (Kyiv, UA)
Age: 45
Name: Andrey
"музыыыка нас связала! (с) :zk: :true:

_________________


Top
 Profile E-mail  
 
 
PostPosted: 24 Sep 2010 
Прокъмитолист
User avatar
Joined: 12 Aug 2007
Posts: 6473
Lоcаtion: Санктъ-Петербуркъ
Age: 50
Name: Олекъ
заберу такое. спасибо, Дим! :true:

_________________
прокъметол - это музыко, от которово есть прок (ы)


Top
 Profile  
 
 
PostPosted: 24 Sep 2010 
спирт 100%
User avatar
Joined: 22 Sep 2008
Posts: 4282
Age: 47
Name: Саня
Дим,Спасибо!!! :thanx: :true:


Top
 Profile  
 
 
PostPosted: 25 Sep 2010 
Power Metal Maniac
User avatar
Joined: 09 Aug 2008
Posts: 6303
Lоcаtion: Москва
Age: 40
Name: Егор
:thanx: :true:

_________________
Long Live Metal!


Top
 Profile  
 
 
PostPosted: 26 Sep 2010 
metallpaparazzy
User avatar
Joined: 20 Dec 2009
Posts: 674
Lоcаtion: Днепропетровск
Age: 43
Name: Геннадий
:thanx:
послухаю, шо за звэр... :meloman:


Top
 Profile E-mail  
 
 
PostPosted: 26 Sep 2010 
Old Time Rock`n`Roll
User avatar
Joined: 23 Jun 2008
Posts: 3354
Lоcаtion: г.Ульяновск
Age: 40
Name: Константин
Спасибо! :thanx:


Top
 Profile  
 
 
PostPosted: 28 Sep 2010 
Труъ
User avatar
Joined: 14 Jul 2009
Posts: 158
Lоcаtion: Hell Is Here
Age: 48
Name: Adriano
Many Thanx ! :true:


Top
 Profile E-mail  
 
 
PostPosted: 29 Sep 2010 
Почётный металлург
User avatar
Joined: 15 Sep 2007
Posts: 4357
Lоcаtion: Хабаровск
Age: 58
Name: чуть выше
Благодарю, Дима!

_________________
Коль будешь людей ты ослами честить,
тебе человеком меж них не прослыть!
(Саади, персидский поэт, 13в.)


Top
 Profile  
 
Display posts from previous:  Sort by  
Post new topic Reply to topic  [ 9 posts ] 

All times are UTC + 3 hours


Who is online

Users browsing this forum: No registered users and 4 guests


You cannot post new topics in this forum
You cannot reply to topics in this forum
You cannot edit your posts in this forum
You cannot delete your posts in this forum
You cannot post attachments in this forum

Search for:
Яндекс.Метрика
Powered by phpBB © 2000, 2002, 2005, 2007 phpBB Group