\m/ 80's metal \m/

Информационно-аналитический форум "80 см пыли" (In Search We Trust) "У нас никто никуда не спешит"
Me For You - http://me-4u.com
It is currently 17 Dec 2018

All times are UTC + 3 hours

Spoiler
Chat - temporary registration for foreign users (please leave your application here)







Post new topic Reply to topic  [ 14 posts ] 
Author Message
 
PostPosted: 18 Sep 2010 
ыыыы
User avatar
Joined: 17 May 2009
Posts: 952
Lоcаtion: Пушкино, МО
Age: 40
Name: Дмитрий
Image


Жанр: Heavy Metal
Происхождение исполнителя: США
Год издания: 1989
Год издания данного носителя: 1989
Страна-производитель носителя: Япония
Аудио кодек: FLAC
Тип рипа: image+.cue
Битрейт аудио: lossless
Продолжительность: 54:36
Рип: Собственный
Лейбл: ELEKTRA/WARNER-PIONEER
Каталоговый номер: 25P2-2492
Матрица: 25P2-2492 1M TO (TOSHIBA)

Треклист:
1. Fake Healer 05:56
2. Rest in Pieces (April 15, 1912) 06:39
3. Of Unsound Mind 04:44
4. Anthem to the Estranged 09:32
5. Badlands 07:24
6. The Spell Can't Be Broken 06:49
7. It's a Secret 03:49
8. Cannot Tell a Lie 04:18
9. The Powers That Be 05:24

"Куй"
REM GENRE "Heavy Metal"
REM DATE 1989
REM DISCID 810CCB09
REM COMMENT "ExactAudioCopy v0.99pb5"
PERFORMER "Metal Church"
TITLE "Blessing In Disguise [25P2-2492]"
FILE "Metal Church - Blessing In Disguise [25P2-2492].flac" WAVE
TRACK 01 AUDIO
TITLE "Fake Healer"
PERFORMER "Metal Church"
INDEX 01 00:00:00
TRACK 02 AUDIO
TITLE "Rest In Pieces (April 15, 1912)"
PERFORMER "Metal Church"
INDEX 00 05:55:72
INDEX 01 05:56:17
TRACK 03 AUDIO
TITLE "Of Unsound Mind"
PERFORMER "Metal Church"
INDEX 00 12:34:25
INDEX 01 12:35:40
TRACK 04 AUDIO
TITLE "Anthem To The Estranged"
PERFORMER "Metal Church"
INDEX 00 17:19:52
INDEX 01 17:19:72
TRACK 05 AUDIO
TITLE "Badlands"
PERFORMER "Metal Church"
INDEX 00 26:51:12
INDEX 01 26:52:15
TRACK 06 AUDIO
TITLE "The Spell Can't Be Broken"
PERFORMER "Metal Church"
INDEX 00 34:14:35
INDEX 01 34:16:25
TRACK 07 AUDIO
TITLE "It's A Secret"
PERFORMER "Metal Church"
INDEX 00 41:03:32
INDEX 01 41:04:65
TRACK 08 AUDIO
TITLE "Cannot Tell A Lie"
PERFORMER "Metal Church"
INDEX 01 44:53:70
TRACK 09 AUDIO
TITLE "The Powers That Be"
PERFORMER "Metal Church"
INDEX 01 49:11:42


"Лог"
Exact Audio Copy V0.99 prebeta 5 from 4. May 2009

Отчёт EAC об извлечении, выполненном 18. сентября 2010, 21:32

Metal Church / Blessing In Disguise [25P2-2492]

Дисковод: MATSHITADVD-RAM UJ-850S Adapter: 0 ID: 0

Режим чтения : Достоверность
Использование точного потока : Да
Отключение кэша аудио : Да
Использование указателей C2 : Нет

Коррекция смещения при чтении : 102
Способность читать области Lead-in и Lead-out : Нет
Заполнение пропущенных сэмплов тишиной : Да
Удаление блоков с тишиной в начале и конце : Нет
При вычислениях CRC использовались нулевые сэмплы : Да
Интерфейс : Установленный внешний ASPI-интерфейс

Выходной формат : Пользовательский кодировщик
Выбранный битрейт : 128 kBit/s
Качество : Высокий
Добавление ID3-тэга : Нет
Утилита сжатия : C:\Program Files\Exact Audio Copy\Flac\flac.exe
Дополнительные параметры : -6 -V -T "artist=%a" -T "title=%t" -T "album=%g" -T "date=%y" -T "tracknumber=%n" -T "genre=%m" -T "comment=EAC 0.99beta5 / FLAC 1.1.0 q6" %s


TOC извлечённого CD

Трек | Старт | Длительность | Начальный сектор | Конечный сектор
---------------------------------------------------------------------
1 | 0:00.00 | 5:56.17 | 0 | 26716
2 | 5:56.17 | 6:39.23 | 26717 | 56664
3 | 12:35.40 | 4:44.32 | 56665 | 77996
4 | 17:19.72 | 9:32.18 | 77997 | 120914
5 | 26:52.15 | 7:24.10 | 120915 | 154224
6 | 34:16.25 | 6:48.40 | 154225 | 184864
7 | 41:04.65 | 3:49.05 | 184865 | 202044
8 | 44:53.70 | 4:17.47 | 202045 | 221366
9 | 49:11.42 | 5:24.13 | 221367 | 245679


Характеристики диапазона извлечения и сообщения об ошибках

Выбранный диапазон

Имя файла Y:\Музыка\Metal Church\1989 Blessing In Disguise\Metal Church - Blessing In Disguise [25P2-2492].wav

Пиковый уровень 100.0 %
Качество диапазона 100.0 %
CRC копии 9C6D0DCE
Копирование... OK

Ошибок не произошло


AccurateRip: сводка

Трек 1 точное извлечение (доверие 1) [4AF09ECE]
Трек 2 точное извлечение (доверие 1) [CDCC839D]
Трек 3 точное извлечение (доверие 1) [AAEFBED3]
Трек 4 точное извлечение (доверие 1) [7774BDCD]
Трек 5 точное извлечение (доверие 1) [0E77D10C]
Трек 6 точное извлечение (доверие 1) [34F80168]
Трек 7 точное извлечение (доверие 1) [02848626]
Трек 8 точное извлечение (доверие 1) [936C07CA]
Трек 9 точное извлечение (доверие 1) [56733E91]

Все треки извлечены точно

Конец отчёта


Состав:
Mike Howe: Vocals
John Marshall: Guitars
Craig Wells: Guitars
Duke Erickson: Bass
Kirk Arrington: Drums

25P2-2492

_________________
Витасу до Даймонда как Алсу до Руссоса | При переразмещении - спрашивать разрешение!!


Top
 Profile  
 
 
PostPosted: 18 Sep 2010 
5cm
User avatar
Joined: 01 Mar 2009
Posts: 61
Name: Сергей
СПАСИБО!


Top
 Profile  
 
 
PostPosted: 18 Sep 2010 
А может смените мне статус?..
User avatar
Joined: 24 Dec 2008
Posts: 622
Age: 44
Name: Дмитрий
Благодарю. Не сразу я понял этот альбом после первых двух. :pardon:


Top
 Profile  
 
 
PostPosted: 18 Sep 2010 
Пионэръ
User avatar
Joined: 02 Jul 2010
Posts: 45
Lоcаtion: Сочи
Age: 46
Name: Борис
Спасибо !!
Отличная группа :meloman: :meloman:


Top
 Profile E-mail  
 
 
PostPosted: 19 Sep 2010 
Хиппей (support team)
User avatar
Joined: 30 Jul 2007
Posts: 108957
Lоcаtion: Киев (Kyiv, UA)
Age: 45
Name: Andrey
Спасибо за классику любимого стиля :thanx:

_________________


Top
 Profile E-mail  
 
 
PostPosted: 19 Sep 2010 
Пионэръ
Joined: 08 Mar 2010
Posts: 36
Lоcаtion: Россия
Age: 39
Name: Иван
Дмитрий спасибо!
Есть надежна увидеть первые альбомы?


Top
 Profile E-mail  
 
 
PostPosted: 19 Sep 2010 
ыыыы
User avatar
Joined: 17 May 2009
Posts: 952
Lоcаtion: Пушкино, МО
Age: 40
Name: Дмитрий
да они издавались совсем недавно-я за ними пока и не гоняюсь

_________________
Витасу до Даймонда как Алсу до Руссоса | При переразмещении - спрашивать разрешение!!


Top
 Profile  
 
 
PostPosted: 19 Sep 2010 
Позитивный Южанин
User avatar
Joined: 07 May 2010
Posts: 1620
Lоcаtion: КРЫМ
Age: 43
Name: Алексей
:true: FUCKING CULT!

_________________
WATER'EM ALL!


Top
 Profile E-mail  
 
 
PostPosted: 19 Sep 2010 
Gretzky must die
User avatar
Joined: 16 Sep 2010
Posts: 263
Lоcаtion: Московская обл.
Name: Андрей
Благодарю ! :thanx: :thanx: :thanx: Нравится как поёт Mike Howe. Узнаваемый голос. Может у Димы есть и следующий - Human Factor ? Было б здорово.


Top
 Profile  
 
 
PostPosted: 19 Sep 2010 
ыыыы
User avatar
Joined: 17 May 2009
Posts: 952
Lоcаtion: Пушкино, МО
Age: 40
Name: Дмитрий
не, пока не приоритет

_________________
Витасу до Даймонда как Алсу до Руссоса | При переразмещении - спрашивать разрешение!!


Top
 Profile  
 
 
PostPosted: 19 Sep 2010 
metallpaparazzy
User avatar
Joined: 20 Dec 2009
Posts: 674
Lоcаtion: Днепропетровск
Age: 43
Name: Геннадий
:true: мне "эта" Церквушка больше впирает, чем изначалиная... :pardon:


Top
 Profile E-mail  
 
 
PostPosted: 19 Sep 2010 
Позитивный Южанин
User avatar
Joined: 07 May 2010
Posts: 1620
Lоcаtion: КРЫМ
Age: 43
Name: Алексей
85,86,89---эти три вне всякой конкуренции,принесли мне как то из последних потуг опусов,но это явное где зелёный человечек надувается,а потом в сторону пиццу выкладывает ротовой полостью :crazy:

_________________
WATER'EM ALL!


Top
 Profile E-mail  
 
 
PostPosted: 24 Sep 2010 
Работнечег
User avatar
Joined: 28 Aug 2007
Posts: 5606
Lоcаtion: г. Москва
Age: 29
Name: Дима
andreycheb wrote:
Может у Димы есть и следующий - Human Factor ? Было б здорово.

У меня есть, на след. неделе постараюсь сделать.


Top
 Profile E-mail  
 
 
PostPosted: 24 Sep 2010 
Gretzky must die
User avatar
Joined: 16 Sep 2010
Posts: 263
Lоcаtion: Московская обл.
Name: Андрей
church wrote:
У меня есть, на след. неделе постараюсь сделать.


:true: :dance: :meloman: :thanx: :thanx: :thanx:


Top
 Profile  
 
Display posts from previous:  Sort by  
Post new topic Reply to topic  [ 14 posts ] 

All times are UTC + 3 hours


Who is online

Users browsing this forum: No registered users and 3 guests


You cannot post new topics in this forum
You cannot reply to topics in this forum
You cannot edit your posts in this forum
You cannot delete your posts in this forum
You cannot post attachments in this forum

Search for:
Яндекс.Метрика
Powered by phpBB © 2000, 2002, 2005, 2007 phpBB Group