\m/ 80's metal \m/

Информационно-аналитический форум "80 см пыли" (In Search We Trust) "У нас никто никуда не спешит"
Me For You - http://me-4u.com
It is currently 21 Nov 2018

All times are UTC + 3 hours

Spoiler
Chat - temporary registration for foreign users (please leave your application here)







Post new topic Reply to topic  [ 15 posts ] 
Author Message
 
PostPosted: 21 Aug 2010 
ыыыы
User avatar
Joined: 17 May 2009
Posts: 952
Lоcаtion: Пушкино, МО
Age: 40
Name: Дмитрий
Image


Жанр: Heavy Metal
Происхождение исполнителя: Дания
Год издания: 1984
Год издания данного носителя: 1984
Страна-производитель носителя: Япония для Голландии
Аудио кодек: FLAC
Тип рипа: image+.cue
Битрейт аудио: lossless
Продолжительность: 43:15
Рип: Собственный
Лейбл: ROADRUNNER
Каталоговый номер: RR 34 9835
Матрица: 9835 X-191 1A1 CTACO. LTD. JAPAN (CTA)

Треклист:
1. A Dangerous Meeting 05:13
2. Nightmare 06:21
3. Desecration of Souls 04:57
4. Night of the Unborn 05:02
5. The Oath 07:34
6. Gypsy 03:10
7. Welcome Princes of Hell* 04:06
8. To One Far Away 01:34
9. Come to the Sabbath 05:19

* : The actual name of the song is "Welcome Princes Of Hell", not "Welcome
Princess Of Hell". It was a title misprint, where the lyrics were correctly
written in the original pressing but the title wasn't. The distinction can also
be heard in the song (the prince "is" vs. prince "s"), as well as the plural
connotation of the lyrics "I'm alone with my friends, We will be back, we will
be back".
Еще один миспринт- в названии группы. Это характерная опечатка этого издания.

"Куй"
REM GENRE "Heavy Metal"
REM DATE 1984
REM DISCID 8D0A2209
REM COMMENT "ExactAudioCopy v0.99pb5"
PERFORMER "Mercyful Fate"
TITLE "Don't Break The Oath [RR 34 9835]"
FILE "Mercyful Fate - Don't Break The Oath [RR 34 9835].flac" WAVE
TRACK 01 AUDIO
TITLE "A Dangerous Meeting"
PERFORMER "Mercyful Fate"
INDEX 01 00:00:00
TRACK 02 AUDIO
TITLE "Nightmare"
PERFORMER "Mercyful Fate"
INDEX 00 05:11:15
INDEX 01 05:12:50
TRACK 03 AUDIO
TITLE "Desecration Of Souls"
PERFORMER "Mercyful Fate"
INDEX 00 11:33:25
INDEX 01 11:33:62
TRACK 04 AUDIO
TITLE "Night Of The Unborn"
PERFORMER "Mercyful Fate"
INDEX 00 16:29:70
INDEX 01 16:30:50
TRACK 05 AUDIO
TITLE "The Oath"
PERFORMER "Mercyful Fate"
INDEX 00 21:31:47
INDEX 01 21:32:32
TRACK 06 AUDIO
TITLE "Gypsy"
PERFORMER "Mercyful Fate"
INDEX 00 29:05:47
INDEX 01 29:06:32
TRACK 07 AUDIO
TITLE "Welcome Princess Of Hell"
PERFORMER "Mercyful Fate"
INDEX 00 32:15:42
INDEX 01 32:16:05
TRACK 08 AUDIO
TITLE "To One Far Away"
PERFORMER "Mercyful Fate"
INDEX 00 36:21:10
INDEX 01 36:22:37
TRACK 09 AUDIO
TITLE "Come To The Sabbath"
PERFORMER "Mercyful Fate"
INDEX 00 37:54:40
INDEX 01 37:56:15


"Лог"
Exact Audio Copy V0.99 prebeta 5 from 4. May 2009

Отчёт EAC об извлечении, выполненном 21. августа 2010, 17:09

Mercyful Fate / Don't Break The Oath [RR 34 9835]

Дисковод: MATSHITADVD-RAM UJ-850S Adapter: 0 ID: 0

Режим чтения : Достоверность
Использование точного потока : Да
Отключение кэша аудио : Да
Использование указателей C2 : Нет

Коррекция смещения при чтении : 102
Способность читать области Lead-in и Lead-out : Нет
Заполнение пропущенных сэмплов тишиной : Да
Удаление блоков с тишиной в начале и конце : Нет
При вычислениях CRC использовались нулевые сэмплы : Да
Интерфейс : Установленный внешний ASPI-интерфейс

Выходной формат : Пользовательский кодировщик
Выбранный битрейт : 128 kBit/s
Качество : Высокий
Добавление ID3-тэга : Нет
Утилита сжатия : C:\Program Files\Exact Audio Copy\Flac\flac.exe
Дополнительные параметры : -6 -V -T "artist=%a" -T "title=%t" -T "album=%g" -T "date=%y" -T "tracknumber=%n" -T "genre=%m" -T "comment=EAC 0.99beta5 / FLAC 1.1.0 q6" %s


TOC извлечённого CD

Трек | Старт | Длительность | Начальный сектор | Конечный сектор
---------------------------------------------------------------------
1 | 0:00.00 | 5:12.50 | 0 | 23449
2 | 5:12.50 | 6:21.12 | 23450 | 52036
3 | 11:33.62 | 4:56.63 | 52037 | 74299
4 | 16:30.50 | 5:01.57 | 74300 | 96931
5 | 21:32.32 | 7:34.00 | 96932 | 130981
6 | 29:06.32 | 3:09.48 | 130982 | 145204
7 | 32:16.05 | 4:06.32 | 145205 | 163686
8 | 36:22.37 | 1:33.53 | 163687 | 170714
9 | 37:56.15 | 5:18.40 | 170715 | 194604


Характеристики диапазона извлечения и сообщения об ошибках

Выбранный диапазон

Имя файла Y:\Музыка\Mercyful Fate\1984 Don't Break The Oath\Mercyful Fate - Don't Break The Oath [RR 34 9835].wav

Пиковый уровень 99.1 %
Качество диапазона 99.9 %
CRC теста 14F20F3C
CRC копии 14F20F3C
Копирование... OK

Ошибок не произошло


AccurateRip: сводка

Трек 1 точное извлечение (доверие 6) [D7A3649C]
Трек 2 точное извлечение (доверие 6) [0D602B81]
Трек 3 точное извлечение (доверие 6) [313F8C08]
Трек 4 точное извлечение (доверие 6) [2FA5DF39]
Трек 5 точное извлечение (доверие 6) [D5D5EF81]
Трек 6 точное извлечение (доверие 6) [979CF0D4]
Трек 7 точное извлечение (доверие 6) [5133EC7F]
Трек 8 точное извлечение (доверие 6) [07FBBEC4]
Трек 9 точное извлечение (доверие 6) [2A592D9E]

Все треки извлечены точно

Конец отчёта


Состав:
Kim Ruzz: Drums
Hank Shermann: Guitars
Michael Denner: Guitars
King Diamond: Vocals
Timi G. Hansen: Bass

RR 34 9835

Сам слим-бокс (образец) мне не достался- ну и на этом спасибо!

_________________
Витасу до Даймонда как Алсу до Руссоса | При переразмещении - спрашивать разрешение!!


Top
 Profile  
 
 
PostPosted: 21 Aug 2010 
Хиппей (support team)
User avatar
Joined: 30 Jul 2007
Posts: 108254
Lоcаtion: Киев (Kyiv, UA)
Age: 45
Name: Andrey
:thanx:

_________________


Top
 Profile E-mail  
 
 
PostPosted: 22 Aug 2010 
Персональный статус
Joined: 14 May 2010
Posts: 236
Age: 37
Name: Денис
Спасибо! С этими Пристами, чуть не пропустил. :fingal:


Top
 Profile  
 
 
PostPosted: 22 Aug 2010 
Хиппей (support team)
User avatar
Joined: 30 Jul 2007
Posts: 108254
Lоcаtion: Киев (Kyiv, UA)
Age: 45
Name: Andrey
disabled wrote:
чуть не пропустил

search.php?search_id=unread :punish:

_________________


Top
 Profile E-mail  
 
 
PostPosted: 22 Aug 2010 
Персональный статус
Joined: 14 May 2010
Posts: 236
Age: 37
Name: Денис
а.. не умею я этим пользоваться. :dash: прости Андрей Саныч.. это либо дойдёт до меня либо нет. сам я не дойду. во загнул :crazy:


Top
 Profile  
 
 
PostPosted: 23 Aug 2010 
Хиппей (support team)
User avatar
Joined: 30 Jul 2007
Posts: 108254
Lоcаtion: Киев (Kyiv, UA)
Age: 45
Name: Andrey
С этой ссылки должен начинаться ваш день на форуме. Иначе всё пропустите :dash:

_________________


Top
 Profile E-mail  
 
 
PostPosted: 23 Aug 2010 
Персональный статус
Joined: 14 May 2010
Posts: 236
Age: 37
Name: Денис
понимаешь какое дело.. у меня там весь форум вылезает по этой ссылке. спам какой-то :umnik:


Top
 Profile  
 
 
PostPosted: 23 Aug 2010 
Хиппей (support team)
User avatar
Joined: 30 Jul 2007
Posts: 108254
Lоcаtion: Киев (Kyiv, UA)
Age: 45
Name: Andrey
disabled wrote:
у меня там весь форум вылезает по этой ссылке. спам какой-то

:shok: Скрин в студию, плиз :true:
Спам в виде названий тем? А ератишный? :oops:

_________________


Top
 Profile E-mail  
 
 
PostPosted: 23 Aug 2010 
Персональный статус
Joined: 14 May 2010
Posts: 236
Age: 37
Name: Денис
да нет.. это я так выразился. просто у меня там 16 непрочитанных страниц.. много букв.


Top
 Profile  
 
 
PostPosted: 23 Aug 2010 
Хиппей (support team)
User avatar
Joined: 30 Jul 2007
Posts: 108254
Lоcаtion: Киев (Kyiv, UA)
Age: 45
Name: Andrey
А, ну дык, постепенно можно все прочитать. Особенно сейчас, когда мало пишут. У меня после НГ у самого было 8 непрочитанных страниц. Справился.
А если не хочешь читать и желаешь всё пропустить, просто нажми index.php?hash=d36b1b3b&mark=forums
И всё станет чисто. А после этого начнешь нормально следить за новыми темами :dance:

_________________


Top
 Profile E-mail  
 
 
PostPosted: 23 Aug 2010 
Персональный статус
Joined: 14 May 2010
Posts: 236
Age: 37
Name: Денис
о только сейчас заметил стёрку. пора скин менять на форуме :umnik: даешь одружилюбливание интерфейса ! :crazy:


Top
 Profile  
 
 
PostPosted: 23 Aug 2010 
ыыыы
User avatar
Joined: 17 May 2009
Posts: 952
Lоcаtion: Пушкино, МО
Age: 40
Name: Дмитрий
да. какой-то унылый тут ифейс (( у меня от него депрессия :blum:

_________________
Витасу до Даймонда как Алсу до Руссоса | При переразмещении - спрашивать разрешение!!


Top
 Profile  
 
 
PostPosted: 23 Aug 2010 
Хиппей (support team)
User avatar
Joined: 30 Jul 2007
Posts: 108254
Lоcаtion: Киев (Kyiv, UA)
Age: 45
Name: Andrey
Идём сюды ucp.php?i=165

Стиль конференции:
меняем на Acid Tech Lime :true:

_________________


Top
 Profile E-mail  
 
 
PostPosted: 23 Aug 2010 
Персональный статус
Joined: 14 May 2010
Posts: 236
Age: 37
Name: Денис
Андрей Саныч, Acid Lime стояла у меня по первости, но потом перешёл на сильверную. Две мало. :umnik:


Top
 Profile  
 
 
PostPosted: 23 Aug 2010 
Хиппей (support team)
User avatar
Joined: 30 Jul 2007
Posts: 108254
Lоcаtion: Киев (Kyiv, UA)
Age: 45
Name: Andrey
disabled wrote:
Две мало

Не проблема запихать и десяток, но смысел? :vic:
Всё равно основаная шкурка постоянно дорабатывается, а остальные никто править не будет и никаких там новшеств кроме, собственно, оригинальной оболочки, не ждите.

_________________


Top
 Profile E-mail  
 
Display posts from previous:  Sort by  
Post new topic Reply to topic  [ 15 posts ] 

All times are UTC + 3 hours


Who is online

Users browsing this forum: Google [Bot] and 1 guest


You cannot post new topics in this forum
You cannot reply to topics in this forum
You cannot edit your posts in this forum
You cannot delete your posts in this forum
You cannot post attachments in this forum

Search for:
Яндекс.Метрика
cron
Powered by phpBB © 2000, 2002, 2005, 2007 phpBB Group