\m/ 80's metal \m/

Информационно-аналитический форум "80 см пыли" (In Search We Trust) "У нас никто никуда не спешит"
Me For You - http://me-4u.com
It is currently 19 Nov 2018

All times are UTC + 3 hours

Spoiler
Chat - temporary registration for foreign users (please leave your application here)







Post new topic Reply to topic  [ 14 posts ] 
Author Message
 
PostPosted: 29 Jul 2010 
ыыыы
User avatar
Joined: 17 May 2009
Posts: 952
Lоcаtion: Пушкино, МО
Age: 40
Name: Дмитрий
Image


Жанр: Heavy Metal
Происхождение исполнителя: США
Год издания: 1988
Год издания данного носителя: 1988
Страна-производитель носителя: Япония
Аудио кодек: FLAC
Тип рипа: image+.cue
Битрейт аудио: lossless
Продолжительность: 23:39
Рип: Собственный
Лейбл: ELEKTRA/WARNER-PIONEER
Каталоговый номер: 25XD-1052
Матрица: 25XD-1052 1 (SONY)

Треклист:
1. Live Wire (Leathur mix) 03:18
2. Piece of Your Action (Leathur mix) 04:43
3. Too Young to Fall in Love (remix) 03:40
4. Knock 'em Dead, Kid (remix) 03:45
5. Home Sweet Home (remix) 03:54
6. Smokin' in the Boys Room (live) (Brownsville Station cover) 04:20

"Куй"
REM GENRE "Heavy Metal"
REM DATE 1988
REM DISCID 38058B06
REM COMMENT "ExactAudioCopy v0.99pb5"
PERFORMER "Motley Crue"
TITLE "Raw Tracks [25XD-1052]"
FILE "Motley Crue - Raw Tracks [25XD-1052].flac" WAVE
TRACK 01 AUDIO
TITLE "Live Wire (Original Leathur Mix)"
PERFORMER "Motley Crue"
INDEX 01 00:00:00
TRACK 02 AUDIO
TITLE "Piece Of Your Action (Original Leathur Mix)"
PERFORMER "Motley Crue"
INDEX 00 03:17:12
INDEX 01 03:18:37
TRACK 03 AUDIO
TITLE "Too Young Too Fall In Love (Remix)"
PERFORMER "Motley Crue"
INDEX 00 08:00:02
INDEX 01 08:01:15
TRACK 04 AUDIO
TITLE "Knock 'Em Dead, Kid"
PERFORMER "Motley Crue"
INDEX 00 11:39:27
INDEX 01 11:41:00
TRACK 05 AUDIO
TITLE "Home Sweet Home (Remix)"
PERFORMER "Motley Crue"
INDEX 00 15:24:25
INDEX 01 15:25:42
TRACK 06 AUDIO
TITLE "Smokin' In The Boys Room (Live)"
PERFORMER "Motley Crue"
INDEX 00 19:18:27
INDEX 01 19:19:42


"Лог"
Exact Audio Copy V0.99 prebeta 5 from 4. May 2009

Отчёт EAC об извлечении, выполненном 29. июля 2010, 9:34

Motley Crue / Raw Tracks [25XD-1052]

Дисковод: Optiarc DVD RW AD-7200A Adapter: 1 ID: 0

Режим чтения : Достоверность
Использование точного потока : Да
Отключение кэша аудио : Да
Использование указателей C2 : Нет

Коррекция смещения при чтении : 48
Способность читать области Lead-in и Lead-out : Нет
Заполнение пропущенных сэмплов тишиной : Да
Удаление блоков с тишиной в начале и конце : Нет
При вычислениях CRC использовались нулевые сэмплы : Да
Интерфейс : Встроенный Win32-интерфейс для Win NT/2000

Выходной формат : Пользовательский кодировщик
Выбранный битрейт : 128 kBit/s
Качество : Высокий
Добавление ID3-тэга : Нет
Утилита сжатия : C:\Program Files\Exact Audio Copy\Flac\flac.exe
Дополнительные параметры : -8 -V -T "artist=%a" -T "title=%t" -T "album=%g" -T "date=%y" -T "tracknumber=%n" -T "genre=%m" -T "comment=EAC


TOC извлечённого CD

Трек | Старт | Длительность | Начальный сектор | Конечный сектор
---------------------------------------------------------------------
1 | 0:00.00 | 3:18.37 | 0 | 14886
2 | 3:18.37 | 4:42.53 | 14887 | 36089
3 | 8:01.15 | 3:39.60 | 36090 | 52574
4 | 11:41.00 | 3:44.42 | 52575 | 69416
5 | 15:25.42 | 3:54.00 | 69417 | 86966
6 | 19:19.42 | 4:19.68 | 86967 | 106459


Характеристики диапазона извлечения и сообщения об ошибках

Выбранный диапазон

Имя файла Y:\Музыка\Motley Crue\1988 Raw Tracks\Motley Crue - Raw Tracks [25XD-1052].wav

Пиковый уровень 100.0 %
Качество диапазона 100.0 %
CRC копии 12412921
Копирование... OK

Ошибок не произошло


AccurateRip: сводка

Трек 1 точность не определена (достоверность 4) [7526B511], AccurateRip вернул [8FD3CD4B]
Трек 2 точность не определена (достоверность 4) [140F1127], AccurateRip вернул [A9C9D72F]
Трек 3 точность не определена (достоверность 4) [5F527231], AccurateRip вернул [20220E71]
Трек 4 точность не определена (достоверность 4) [E6498F13], AccurateRip вернул [2D86BAC1]
Трек 5 точность не определена (достоверность 4) [9F5171FB], AccurateRip вернул [762D748F]
Трек 6 точность не определена (достоверность 4) [1B332614], AccurateRip вернул [942A3AFA]

Ни один трек не прошёл проверки на точность
В вашей базе может быть иной вариант штамповки диска

Конец отчёта


Состав:
Vince Neil: Vocals
Mick Mars: Guitar
Nikki Sixx: Bass
Tommy Lee: Drums

25XD-1052

_________________
Витасу до Даймонда как Алсу до Руссоса | При переразмещении - спрашивать разрешение!!


Top
 Profile  
 
 
PostPosted: 29 Jul 2010 
Занудный сыч, сопсна
User avatar
Joined: 20 Aug 2007
Posts: 260
Lоcаtion: Москва
Age: 41
Name: Тимофей
Какая красотища, однако!!! Мегареспектище :true:

_________________
"Если бы Николая Баскова не существовало, его следовало бы слепить из говна, хохломы и оладьев" (с) yasviridov.livejournal.com
***
Don't say it's over till is over
***


Top
 Profile  
 
 
PostPosted: 29 Jul 2010 
Персональный статус
Joined: 14 May 2010
Posts: 236
Age: 37
Name: Денис
Спасибо за очередной р0ритет! :true:


Top
 Profile  
 
 
PostPosted: 29 Jul 2010 
ыыыы
User avatar
Joined: 17 May 2009
Posts: 952
Lоcаtion: Пушкино, МО
Age: 40
Name: Дмитрий
уже послушали? ну как? :meloman:

_________________
Витасу до Даймонда как Алсу до Руссоса | При переразмещении - спрашивать разрешение!!


Top
 Profile  
 
 
PostPosted: 29 Jul 2010 
Персональный статус
Joined: 14 May 2010
Posts: 236
Age: 37
Name: Денис
Дмитрий, на работе нет возможности слушать, только репостить могу. :nunu:
Слушать буду вечером, дома.


Top
 Profile  
 
 
PostPosted: 29 Jul 2010 
ыыыы
User avatar
Joined: 17 May 2009
Posts: 952
Lоcаtion: Пушкино, МО
Age: 40
Name: Дмитрий
на до сказать, что дисочек я пока только этот в продаже и видел...имейте представление об его распространённости ))

_________________
Витасу до Даймонда как Алсу до Руссоса | При переразмещении - спрашивать разрешение!!


Top
 Profile  
 
 
PostPosted: 29 Jul 2010 
Персональный статус
Joined: 14 May 2010
Posts: 236
Age: 37
Name: Денис
iezuit wrote:
на до сказать, что дисочек я пока только этот в продаже и видел...имейте представление об его распространённости ))

ээ.. перефразируй плиз, чего-то я отупел с этой жары уже, ничего не понял. :fingal:


Top
 Profile  
 
 
PostPosted: 29 Jul 2010 
ыыыы
User avatar
Joined: 17 May 2009
Posts: 952
Lоcаtion: Пушкино, МО
Age: 40
Name: Дмитрий
ну то, что он достаточно редок! я его видел только один раз, чем и воспользовался))

_________________
Витасу до Даймонда как Алсу до Руссоса | При переразмещении - спрашивать разрешение!!


Top
 Profile  
 
 
PostPosted: 29 Jul 2010 
Персональный статус
Joined: 14 May 2010
Posts: 236
Age: 37
Name: Денис
а... ну я примерно так и понял сразу как увидел. еще написал спасибо за р0ритет. :umnik:


Top
 Profile  
 
 
PostPosted: 29 Jul 2010 
Хиппей (support team)
User avatar
Joined: 30 Jul 2007
Posts: 108153
Lоcаtion: Киев (Kyiv, UA)
Age: 45
Name: Andrey
Ура! Спасибо! :thanx:
Уже распространил :true:

_________________


Top
 Profile E-mail  
 
 
PostPosted: 29 Jul 2010 
ыыыы
User avatar
Joined: 17 May 2009
Posts: 952
Lоcаtion: Пушкино, МО
Age: 40
Name: Дмитрий
Scatterbrain
куда?? :shok:

_________________
Витасу до Даймонда как Алсу до Руссоса | При переразмещении - спрашивать разрешение!!


Top
 Profile  
 
 
PostPosted: 29 Jul 2010 
Персональный статус
Joined: 14 May 2010
Posts: 236
Age: 37
Name: Денис
видимо, на adrive.


Top
 Profile  
 
 
PostPosted: 29 Jul 2010 
Хиппей (support team)
User avatar
Joined: 30 Jul 2007
Posts: 108153
Lоcаtion: Киев (Kyiv, UA)
Age: 45
Name: Andrey
disabled wrote:
видимо, на adrive.

Именно. Больше ж некуды :fingal:

_________________


Top
 Profile E-mail  
 
 
PostPosted: 02 Aug 2010 
Alive Again
User avatar
Joined: 17 Dec 2008
Posts: 4740
Lоcаtion: Курск Воронеж Оскол
Age: 44
Name: Дмитрий
Интересно, сами музыканты знают про этот альбом :crazy:
За раритет :thanx:


Top
 Profile E-mail  
 
Display posts from previous:  Sort by  
Post new topic Reply to topic  [ 14 posts ] 

All times are UTC + 3 hours


Who is online

Users browsing this forum: No registered users and 2 guests


You cannot post new topics in this forum
You cannot reply to topics in this forum
You cannot edit your posts in this forum
You cannot delete your posts in this forum
You cannot post attachments in this forum

Search for:
Яндекс.Метрика
Powered by phpBB © 2000, 2002, 2005, 2007 phpBB Group