\m/ 80's metal \m/

Информационно-аналитический форум "80 см пыли" (In Search We Trust) "У нас никто никуда не спешит"
Me For You - http://me-4u.com
It is currently 15 Nov 2018

All times are UTC + 3 hours

Spoiler
Chat - temporary registration for foreign users (please leave your application here)







Post new topic Reply to topic  [ 5 posts ] 
Author Message
 
PostPosted: 25 Jul 2010 
Хиппей (support team)
User avatar
Joined: 30 Jul 2007
Posts: 108009
Lоcаtion: Киев (Kyiv, UA)
Age: 45
Name: Andrey
Manitou - 1995 - Entrance [flac]

Attachment:
front.jpg
front.jpg [ 7.18 MiB | Viewed 163 times ]


Genre: Progressive Metal
Location: Norway
Format: flac+cue+log+scans
Size: 506 Mb


Line-up:
Øyvind Hægeland - vocals
Ole P. Fredriksen - guitars
Jan Schulze - guitars
Tom Eriksen - bass
Per B. Aanonsen - drums

    1. Servants of the Greed - 05:48
    2. Ache Falls Dead Calm - 06:53
    3. Coven (Autumn Arrives) - 06:28
    4. Ship of Dreams - 07:12
    5. The Forlorne - 06:02
    6. Entrance - 06:19
    7. Shadowhunt - 05:45
    8. Into Plumbless Oceans - 06:06
    9. Prophecy of the Sleeper - 07:28
    10. The Prediction - 05:50
    11. When Silence Descends - 07:57

    TPT: 01:11:53

Thanx to Exploded from MMT :thanx:

Альбом мной был непонят :vic:
Обычный прогметол, ничего особенного. Малость раздражает "стенающий" вокалист и затянутость как композиций, так и всего альбома.
Однажды солист он не вытерпел своих же соплей и зарычал "ГррррРРРрр!" (композиция "Coven (Autumn Arrives").
Есть ли здесь power metal? Хм, местами присутствует :umnik: Иногда, очень редко, музыканты вдруг уходят в трэш.
Да, в 8-м трэке аж два рыка, вернее, крика. Первый компьютерно-инфернальный (ну типа морское чудище вопит), второй явно остальных музыкантов - запарились играть одно и тоже :cry:

6/10

MultiUp l Narod

log
EAC extraction logfile from 26. January 2009, 14:02 for CD
Manitou / Entrance

Used drive : HL-DT-STDVDRAM GH20NS10 Adapter: 0 ID: 1
Read mode : Secure with NO C2, accurate stream, disable cache
Read offset correction : 667
Overread into Lead-In and Lead-Out : No

Used output format : C:\Program Files\Exact Audio Copy\FLAC.EXE (User Defined Encoder)
32 kBit/s
Additional command line options : -6 -V %s

Other options :
Fill up missing offset samples with silence : Yes
Delete leading and trailing silent blocks : No
Native Win32 interface for Win NT & 2000


Range status and errors
Selected range
Filename N:\- EAC Temp\Manitou - Entrance.flac.wav

Peak level 99.6 %
Range quality 100.0 %
CRC AFDEE28D
Copy OK

No errors occured

End of status report


cue
PERFORMER "Manitou"
TITLE "Entrance"
FILE "Manitou - Entrance.flac" WAVE
TRACK 01 AUDIO
TITLE "Servants of greed"
PERFORMER "Manitou"
INDEX 01 00:00:00
TRACK 02 AUDIO
TITLE "Ache falls dead calm"
PERFORMER "Manitou"
INDEX 01 05:48:35
TRACK 03 AUDIO
TITLE "Coven (Autumn arrives)"
PERFORMER "Manitou"
INDEX 01 12:41:72
TRACK 04 AUDIO
TITLE "Ship of dreams"
PERFORMER "Manitou"
INDEX 00 19:10:12
INDEX 01 19:10:67
TRACK 05 AUDIO
TITLE "The forlorn"
PERFORMER "Manitou"
INDEX 00 26:21:32
INDEX 01 26:23:20
TRACK 06 AUDIO
TITLE "Entrance"
PERFORMER "Manitou"
INDEX 01 32:25:35
TRACK 07 AUDIO
TITLE "Shadowhunt"
PERFORMER "Manitou"
INDEX 00 38:44:22
INDEX 01 38:44:70
TRACK 08 AUDIO
TITLE "Into plumbless oceans"
PERFORMER "Manitou"
INDEX 00 44:30:00
INDEX 01 44:30:12
TRACK 09 AUDIO
TITLE "Prophecy of the sleeper"
PERFORMER "Manitou"
INDEX 01 50:36:20
TRACK 10 AUDIO
TITLE "The prediction"
PERFORMER "Manitou"
INDEX 01 58:05:12
TRACK 11 AUDIO
TITLE "When silence decends"
PERFORMER "Manitou"
INDEX 00 63:54:57
INDEX 01 63:56:00

_________________


Top
 Profile E-mail  
 
 
PostPosted: 25 Jul 2010 
адын фелософъ прокметолу
User avatar
Joined: 22 Oct 2009
Posts: 2709
Lоcаtion: Сочи
Age: 41
Name: Сергей
эээ... а какое замечательное вступление в песне Ship of Dreams. ну а эта композиция The Forlorne лучшая на альбоме

_________________
А теперь ... клоунов и стриптизёрш!


Top
 Profile E-mail  
 
 
PostPosted: 25 Jul 2010 
Хиппей (support team)
User avatar
Joined: 30 Jul 2007
Posts: 108009
Lоcаtion: Киев (Kyiv, UA)
Age: 45
Name: Andrey
А мне больше всех из непонравившихся понравилась "Prophecy of the Sleeper" :dance:

_________________


Top
 Profile E-mail  
 
 
PostPosted: 27 Nov 2011 
Power Metal Maniac
User avatar
Joined: 09 Aug 2008
Posts: 6351
Lоcаtion: Москва
Age: 40
Name: Егор
:thanx:

_________________
Long Live Metal!


Top
 Profile  
 
 
PostPosted: 17 Oct 2015 
Доктор энтомологии
User avatar
Joined: 22 Jan 2009
Posts: 9448
Lоcаtion: Даугавпилс
Age: 43
Name: Алексей
А в 80х играли прикольно, более традово
:meloman:
Manitou - Flyin Away (1988)


Top
 Profile  
 
Display posts from previous:  Sort by  
Post new topic Reply to topic  [ 5 posts ] 

All times are UTC + 3 hours


Who is online

Users browsing this forum: No registered users and 2 guests


You cannot post new topics in this forum
You cannot reply to topics in this forum
You cannot edit your posts in this forum
You cannot delete your posts in this forum
You cannot post attachments in this forum

Search for:
Яндекс.Метрика
Powered by phpBB © 2000, 2002, 2005, 2007 phpBB Group