\m/ 80's metal \m/

Информационно-аналитический форум "80 см пыли" (In Search We Trust) "У нас никто никуда не спешит"
Me For You - http://me-4u.com
It is currently 16 Nov 2018

All times are UTC + 3 hours

Spoiler
Chat - temporary registration for foreign users (please leave your application here)







Post new topic Reply to topic  [ 13 posts ] 
Author Message
 
PostPosted: 20 Jul 2010 
ыыыы
User avatar
Joined: 17 May 2009
Posts: 952
Lоcаtion: Пушкино, МО
Age: 40
Name: Дмитрий
Image


Жанр: Heavy Metal
Происхождение исполнителя: Германия
Год издания: 1987
Год издания данного носителя: 1987
Страна-производитель носителя: Япония
Аудио кодек: FLAC
Тип рипа: image+.cue
Битрейт аудио: lossless
Продолжительность: 37:05
Рип: Собственный
Лейбл: ROADRUNNER/SMS
Каталоговый номер: MP32-5309
Матрица: MP32-5309-A1E 11 (JVC)

Треклист:
1. Burning The Stage 05:23
2. Wait For The Night 04:10
3. R.I.P. 1:01
4. Dive Through The Sky 03:09
5. Wild And Seventeen 04:09
6. Hearts On Fire 05:01
7. Love Loaded 04:01
8. Night Of Passion 03:37
9. Starcrossed Lovers 03:18
10. Fox On The Run (Sweet cover) 03:16

"Куй"
REM GENRE "Hard Rock"
REM DATE 1987
REM DISCID 7B08B10A
REM COMMENT "ExactAudioCopy v0.99pb5"
PERFORMER "Mad Max"
TITLE "Night Of Passion [MP32-5309]"
FILE "Mad Max - Night Of Passion [MP32-5309].flac" WAVE
TRACK 01 AUDIO
TITLE "Burning The Stage"
PERFORMER "Mad Max"
INDEX 00 00:00:00
INDEX 01 00:00:37
TRACK 02 AUDIO
TITLE "Wait For The Night"
PERFORMER "Mad Max"
INDEX 00 05:23:05
INDEX 01 05:23:62
TRACK 03 AUDIO
TITLE "R.I.P."
PERFORMER "Mad Max"
INDEX 00 09:32:53
INDEX 01 09:33:37
TRACK 04 AUDIO
TITLE "Dive Through The Sky"
PERFORMER "Mad Max"
INDEX 01 10:34:22
TRACK 05 AUDIO
TITLE "Wild And Seventeen"
PERFORMER "Mad Max"
INDEX 01 13:43:52
TRACK 06 AUDIO
TITLE "Hearts On Fire"
PERFORMER "Mad Max"
INDEX 00 17:50:58
INDEX 01 17:52:20
TRACK 07 AUDIO
TITLE "Love Loaded"
PERFORMER "Mad Max"
INDEX 00 22:52:40
INDEX 01 22:53:42
TRACK 08 AUDIO
TITLE "Night Of Passion"
PERFORMER "Mad Max"
INDEX 00 26:54:50
INDEX 01 26:55:00
TRACK 09 AUDIO
TITLE "Starcrossed Lovers"
PERFORMER "Mad Max"
INDEX 00 30:31:30
INDEX 01 30:31:67
TRACK 10 AUDIO
TITLE "Fox On The Run"
PERFORMER "Mad Max"
INDEX 00 33:49:15
INDEX 01 33:49:70


"Лог"
Exact Audio Copy V0.99 prebeta 5 from 4. May 2009

Отчёт EAC об извлечении, выполненном 20. июля 2010, 13:49

Mad Max / Night Of Passion [MP32-5309]

Дисковод: Optiarc DVD RW AD-7200A Adapter: 1 ID: 0

Режим чтения : Достоверность
Использование точного потока : Да
Отключение кэша аудио : Да
Использование указателей C2 : Нет

Коррекция смещения при чтении : 48
Способность читать области Lead-in и Lead-out : Нет
Заполнение пропущенных сэмплов тишиной : Да
Удаление блоков с тишиной в начале и конце : Нет
При вычислениях CRC использовались нулевые сэмплы : Да
Интерфейс : Встроенный Win32-интерфейс для Win NT/2000

Выходной формат : Пользовательский кодировщик
Выбранный битрейт : 128 kBit/s
Качество : Высокий
Добавление ID3-тэга : Нет
Утилита сжатия : C:\Program Files\Exact Audio Copy\Flac\flac.exe
Дополнительные параметры : -8 -V -T "artist=%a" -T "title=%t" -T "album=%g" -T "date=%y" -T "tracknumber=%n" -T "genre=%m" -T "comment=EAC


TOC извлечённого CD

Трек | Старт | Длительность | Начальный сектор | Конечный сектор
---------------------------------------------------------------------
1 | 0:00.37 | 5:23.25 | 37 | 24286
2 | 5:23.62 | 4:09.50 | 24287 | 43011
3 | 9:33.37 | 1:00.60 | 43012 | 47571
4 | 10:34.22 | 3:09.30 | 47572 | 61776
5 | 13:43.52 | 4:08.43 | 61777 | 80419
6 | 17:52.20 | 5:01.22 | 80420 | 103016
7 | 22:53.42 | 4:01.33 | 103017 | 121124
8 | 26:55.00 | 3:36.67 | 121125 | 137391
9 | 30:31.67 | 3:18.03 | 137392 | 152244
10 | 33:49.70 | 3:15.72 | 152245 | 166941


Характеристики диапазона извлечения и сообщения об ошибках

Выбранный диапазон

Имя файла Y:\Музыка\Mad Max\1987 Night Of Passion\Mad Max - Night Of Passion [MP32-5309].wav

Пиковый уровень 100.0 %
Качество диапазона 100.0 %
CRC копии 84A6FE0C
Копирование... OK

Ошибок не произошло


AccurateRip: сводка

Трек 1 нет в базе данных
Трек 2 нет в базе данных
Трек 3 нет в базе данных
Трек 4 нет в базе данных
Трек 5 нет в базе данных
Трек 6 нет в базе данных
Трек 7 нет в базе данных
Трек 8 нет в базе данных
Трек 9 нет в базе данных
Трек 10 нет в базе данных

Ни одного трека нет в базе AccurateRip

Конец отчёта


Состав:
Michael Voss: Vocals
Jürgen Breforth: Guitar
Roland Bergmann: Bass
Axel Kruse: Drums

MP32-5309

_________________
Витасу до Даймонда как Алсу до Руссоса | При переразмещении - спрашивать разрешение!!


Top
 Profile  
 
 
PostPosted: 20 Jul 2010 
Хиппей (support team)
User avatar
Joined: 30 Jul 2007
Posts: 108029
Lоcаtion: Киев (Kyiv, UA)
Age: 45
Name: Andrey
:true: ...и никаких гвоздей :true:

_________________


Top
 Profile E-mail  
 
 
PostPosted: 20 Jul 2010 
ыыыы
User avatar
Joined: 17 May 2009
Posts: 952
Lоcаtion: Пушкино, МО
Age: 40
Name: Дмитрий
вот вот! :true: :true: :true:

_________________
Витасу до Даймонда как Алсу до Руссоса | При переразмещении - спрашивать разрешение!!


Top
 Profile  
 
 
PostPosted: 20 Jul 2010 
HAMMER
User avatar
Joined: 16 May 2009
Posts: 5447
Lоcаtion: Тверь
Age: 45
Name: Александр
Спасибо :thanx:


Top
 Profile E-mail  
 
 
PostPosted: 20 Jul 2010 
Персональный статус
Joined: 14 May 2010
Posts: 236
Age: 37
Name: Денис
Спасибо Дмитрий! Это восторг!!! :true: :true: :true:


Top
 Profile  
 
 
PostPosted: 20 Jul 2010 
ыыыы
User avatar
Joined: 17 May 2009
Posts: 952
Lоcаtion: Пушкино, МО
Age: 40
Name: Дмитрий
Чёто гляжу я в эти юные лица и думаю- такие любители Бетховена на танках в 41 вполне могли ехать завоёвывать поклонников Мусоргского и Чайковского. Причём даже сторонников тут заимели :nose:
Вот пусть лучше музыку пишут :nunu: :tank:

_________________
Витасу до Даймонда как Алсу до Руссоса | При переразмещении - спрашивать разрешение!!


Top
 Profile  
 
 
PostPosted: 20 Jul 2010 
Персональный статус
Joined: 14 May 2010
Posts: 236
Age: 37
Name: Денис
отжигаешь. :true: фрицы.

ого, я уже "10cm"!!1 :blum: :nunu:


Top
 Profile  
 
 
PostPosted: 20 Jul 2010 
ыыыы
User avatar
Joined: 17 May 2009
Posts: 952
Lоcаtion: Пушкино, МО
Age: 40
Name: Дмитрий
Хорошо заметен косяк в начале 4-й строчки- она вверх сползла :dash: :nunu:
такой вот косяк :fingal:

_________________
Витасу до Даймонда как Алсу до Руссоса | При переразмещении - спрашивать разрешение!!


Top
 Profile  
 
 
PostPosted: 20 Jul 2010 
ыыыы
User avatar
Joined: 17 May 2009
Posts: 952
Lоcаtion: Пушкино, МО
Age: 40
Name: Дмитрий
ага. Слева направо- гитарист, вокалист, барабанщик, басист
а кто тут на клавишах пиликает??

_________________
Витасу до Даймонда как Алсу до Руссоса | При переразмещении - спрашивать разрешение!!


Top
 Profile  
 
 
PostPosted: 21 Jul 2010 
Metal Collector
User avatar
Joined: 16 Nov 2008
Posts: 1230
Lоcаtion: Химки
Age: 35
Name: Андрей
Вот это подгон!! Любимый альбом у них. Спасибо, Дим, за первопресс! :true:


Top
 Profile E-mail  
 
 
PostPosted: 21 Jul 2010 
Пионэръ
User avatar
Joined: 02 Jul 2010
Posts: 45
Lоcаtion: Сочи
Age: 46
Name: Борис
СПАСИБО Дима :true: :true:


Top
 Profile E-mail  
 
 
PostPosted: 24 Jul 2010 
Почётный металлург
User avatar
Joined: 15 Sep 2007
Posts: 4357
Lоcаtion: Хабаровск
Age: 58
Name: чуть выше
Благодарю. :true:

_________________
Коль будешь людей ты ослами честить,
тебе человеком меж них не прослыть!
(Саади, персидский поэт, 13в.)


Top
 Profile  
 
 
PostPosted: 06 Oct 2010 
Труъ
User avatar
Joined: 15 Dec 2008
Posts: 131
Lоcаtion: Донбасс
Age: 46
Name: Евгений
:thanx: Спасибо большое за японца!


Top
 Profile  
 
Display posts from previous:  Sort by  
Post new topic Reply to topic  [ 13 posts ] 

All times are UTC + 3 hours


Who is online

Users browsing this forum: No registered users and 1 guest


You cannot post new topics in this forum
You cannot reply to topics in this forum
You cannot edit your posts in this forum
You cannot delete your posts in this forum
You cannot post attachments in this forum

Search for:
Яндекс.Метрика
Powered by phpBB © 2000, 2002, 2005, 2007 phpBB Group