\m/ 80's metal \m/

Информационно-аналитический форум "80 см пыли" (In Search We Trust) "У нас никто никуда не спешит"
Me For You - http://me-4u.com
It is currently 20 Sep 2018

All times are UTC + 3 hours

Spoiler
Chat - temporary registration for foreign users (please leave your application here)







Post new topic Reply to topic  [ 24 posts ]  Go to page 1, 2  Next
Author Message
 
PostPosted: 01 Jun 2010 
Хиппей (support team)
User avatar
Joined: 30 Jul 2007
Posts: 106327
Lоcаtion: Киев (Kyiv, UA)
Age: 45
Name: Andrey
Mass - 1980 - Angel Power (reissued 2010) [ape]

    Image

Genre: Heavy Metal + Rock & Roll
Location: Germany
Format: ape+cue+log+scans
Size: 286 Mb


Line-up:
Jack E. Burnside: vocals
Detlef Schreiber: guitar
Günther Victor Radny: bass
Johannes Eder: drums

    1. Hate - 01:54
    2. Too Much Business - 02:15
    3. Flying Into Mexico - 02:11
    4. Rock Baby - 02:13
    5. It Must Be Evil - 02:00
    6. Good Times - 02:52
    7. Angel Power - 02:36
    8. Bad Times - 03:33
    9. Qualifications - 02:19
    10. It´s No Guarantee - 01:46
    11. Come On - 02:28
    12. Call It - 01:52
    13. Tokyo Teen - 02:31
    14. Good Old Rock ´n ´Roll - 02:05
    15. Black Mass (bonus) - 05:32

    TPT: 32:35

Очень резвый и добротный альбом, стиль которого определить не так уж просто :fingal: Если слушать впервые, поверхностно, то можно спутать с панк-роком :crazy: На самом деле это уже даже не хард-рок, а самый настоящий раздолбайский хэви, замешанный на рокендролле :true:
В Англии, например, в это время мало кто из групп перешел от харда к хэви, довольствуясь промежуточным термином NWOBHM, или нарезая обычный хард-рок.


MiltiUp l Narod

Автор рипа испанский камрад Sentencia, он же - Tuco Pacifico, который и раздал этот альбом постредствам ослика :thanx:

log
Exact Audio Copy V0.99 prebeta 5 from 4. May 2009

EAC extraction logfile from 29. May 2010, 10:25

Mass / Angel Power

Used drive : BENQ DVD DD EW164B Adapter: 3 ID: 0

Read mode : Secure
Utilize accurate stream : Yes
Defeat audio cache : Yes
Make use of C2 pointers : No

Read offset correction : 618
Overread into Lead-In and Lead-Out : No
Fill up missing offset samples with silence : Yes
Delete leading and trailing silent blocks : No
Null samples used in CRC calculations : Yes
Used interface : Native Win32 interface for Win NT & 2000

Used output format : Internal WAV Routines
Sample format : 44.100 Hz; 16 Bit; Stereo


TOC of the extracted CD

Track | Start | Length | Start sector | End sector
---------------------------------------------------------
1 | 0:00.00 | 2:37.01 | 0 | 11775
2 | 2:37.01 | 1:54.73 | 11776 | 20398
3 | 4:31.74 | 2:16.49 | 20399 | 30647
4 | 6:48.48 | 2:12.11 | 30648 | 40558
5 | 9:00.59 | 2:13.37 | 40559 | 50570
6 | 11:14.21 | 2:01.53 | 50571 | 59698
7 | 13:15.74 | 2:53.46 | 59699 | 72719
8 | 16:09.45 | 3:31.25 | 72720 | 88569
9 | 19:40.70 | 2:20.02 | 88570 | 99071
10 | 22:00.72 | 1:47.35 | 99072 | 107131
11 | 23:48.32 | 2:29.16 | 107132 | 118322
12 | 26:17.48 | 1:52.73 | 118323 | 126795
13 | 28:10.46 | 2:31.69 | 126796 | 138189
14 | 30:42.40 | 2:06.40 | 138190 | 147679
15 | 32:49.05 | 5:32.54 | 147680 | 172633


Range status and errors

Selected range

Filename C:\Documents and Settings\I&I\Mis documentos\Mass\Mass - Angel Power.wav

Peak level 88.8 %
Range quality 100.0 %
Copy CRC B531AF39
Copy OK

No errors occurred


AccurateRip summary

Track 1 not present in database
Track 2 not present in database
Track 3 not present in database
Track 4 not present in database
Track 5 not present in database
Track 6 not present in database
Track 7 not present in database
Track 8 not present in database
Track 9 not present in database
Track 10 not present in database
Track 11 not present in database
Track 12 not present in database
Track 13 not present in database
Track 14 not present in database
Track 15 not present in database

None of the tracks are present in the AccurateRip database

End of status report


cue
REM GENRE Metal
REM DATE 1980
REM DISCID CF08FD0F
REM COMMENT "ExactAudioCopy v0.99pb5"
PERFORMER "Mass"
TITLE "Angel Power"
FILE "Mass - Angel Power.wav" WAVE
TRACK 01 AUDIO
TITLE "Angel Power"
PERFORMER "Mass"
INDEX 01 00:00:00
TRACK 02 AUDIO
TITLE "Hate"
PERFORMER "Mass"
FLAGS DCP
INDEX 00 02:29:11
INDEX 01 02:37:01
TRACK 03 AUDIO
TITLE "Too Much Business"
PERFORMER "Mass"
FLAGS DCP
INDEX 00 04:24:09
INDEX 01 04:31:74
TRACK 04 AUDIO
TITLE "Lying Into Mexico"
PERFORMER "Mass"
FLAGS DCP
INDEX 00 06:40:58
INDEX 01 06:48:48
TRACK 05 AUDIO
TITLE "Rock Baby"
PERFORMER "Mass"
FLAGS DCP
INDEX 00 08:52:69
INDEX 01 09:00:59
TRACK 06 AUDIO
TITLE "It Must Be Evil"
PERFORMER "Mass"
FLAGS DCP
INDEX 00 11:06:31
INDEX 01 11:14:21
TRACK 07 AUDIO
TITLE "Good Times"
PERFORMER "Mass"
FLAGS DCP
INDEX 00 13:08:09
INDEX 01 13:15:74
TRACK 08 AUDIO
TITLE "Bad Times"
PERFORMER "Mass"
FLAGS DCP
INDEX 00 16:01:55
INDEX 01 16:09:45
TRACK 09 AUDIO
TITLE "Qualification"
PERFORMER "Mass"
FLAGS DCP
INDEX 00 19:33:05
INDEX 01 19:40:70
TRACK 10 AUDIO
TITLE "It's No Guarantee"
PERFORMER "Mass"
FLAGS DCP
INDEX 00 21:53:07
INDEX 01 22:00:72
TRACK 11 AUDIO
TITLE "Come On"
PERFORMER "Mass"
FLAGS DCP
INDEX 00 23:40:42
INDEX 01 23:48:32
TRACK 12 AUDIO
TITLE "Call It"
PERFORMER "Mass"
FLAGS DCP
INDEX 00 26:09:58
INDEX 01 26:17:48
TRACK 13 AUDIO
TITLE "Tokyo Teen"
PERFORMER "Mass"
FLAGS DCP
INDEX 00 28:02:56
INDEX 01 28:10:46
TRACK 14 AUDIO
TITLE "Good Old Rock 'n' Roll"
PERFORMER "Mass"
FLAGS DCP
INDEX 00 30:34:50
INDEX 01 30:42:40
TRACK 15 AUDIO
TITLE "Black Mass (Bonus)"
PERFORMER "Mass"
FLAGS DCP
INDEX 00 32:41:15
INDEX 01 32:49:05

_________________


Top
 Profile E-mail  
 
 
PostPosted: 01 Jun 2010 
А может смените мне статус?..
User avatar
Joined: 24 Dec 2008
Posts: 614
Age: 44
Name: Дмитрий
Прослушаю, спасибо.


Top
 Profile  
 
 
PostPosted: 01 Jun 2010 
Прокъмитолист
User avatar
Joined: 12 Aug 2007
Posts: 6469
Lоcаtion: Санктъ-Петербуркъ
Age: 50
Name: Олекъ
очень радует, что SPV сумели после банкротства остаться на плаву и наконец взялись за переиздания "старья". давно пора :true:

_________________
прокъметол - это музыко, от которово есть прок (ы)


Top
 Profile  
 
 
PostPosted: 01 Jun 2010 
Хиппей (support team)
User avatar
Joined: 30 Jul 2007
Posts: 106327
Lоcаtion: Киев (Kyiv, UA)
Age: 45
Name: Andrey
А щас многие лэйблы, которые в позапрошлом году якобы загнулись, вновь вылезли из подвалов :true:

_________________


Top
 Profile E-mail  
 
 
PostPosted: 01 Jun 2010 
Хиппей (support team)
User avatar
Joined: 30 Jul 2007
Posts: 106327
Lоcаtion: Киев (Kyiv, UA)
Age: 45
Name: Andrey
Кста... проверьте, плиз, куй внимательно. У меня чего-то лось отказался воспроизводится через плэйлист АИМпа... :vic:

_________________


Top
 Profile E-mail  
 
 
PostPosted: 03 Jun 2010 
Почётный металлург
User avatar
Joined: 15 Sep 2007
Posts: 4357
Lоcаtion: Хабаровск
Age: 58
Name: чуть выше
Scatterbrain wrote:
У меня чего-то лось отказался воспроизводится через плэйлист АИМпа...

Имя куя напиши правильно. Как сам файл ape.

_________________
Коль будешь людей ты ослами честить,
тебе человеком меж них не прослыть!
(Саади, персидский поэт, 13в.)


Top
 Profile  
 
 
PostPosted: 03 Jun 2010 
Хиппей (support team)
User avatar
Joined: 30 Jul 2007
Posts: 106327
Lоcаtion: Киев (Kyiv, UA)
Age: 45
Name: Andrey
Sergey wrote:
Имя куя напиши правильно

Ага, пасибо, уже тож заметил :dance:

_________________


Top
 Profile E-mail  
 
 
PostPosted: 19 Jul 2010 
Хиппей (support team)
User avatar
Joined: 30 Jul 2007
Posts: 106327
Lоcаtion: Киев (Kyiv, UA)
Age: 45
Name: Andrey
:shok: :crazy:

Image

_________________


Top
 Profile E-mail  
 
 
PostPosted: 19 Jul 2010 
Работнечег
User avatar
Joined: 28 Aug 2007
Posts: 5409
Lоcаtion: г. Москва
Age: 29
Name: Дима
У группы обнаружилось небольшое количество новых поклонников :crazy:
P.S. На Steamhammer также переиздали альбомы Swiss Connection, Metal Fighter и War Law.


Top
 Profile E-mail  
 
 
PostPosted: 19 Jul 2010 
Зарегился вот...
User avatar
Joined: 17 Jul 2010
Posts: 4
Lоcаtion: Netherlands
Age: 41
Name: /
Thanks Scatterbrain and Tuco!
:punko:


Top
 Profile E-mail  
 
 
PostPosted: 19 Jul 2010 
metallpaparazzy
User avatar
Joined: 20 Dec 2009
Posts: 674
Lоcаtion: Днепропетровск
Age: 43
Name: Геннадий
Scatterbrain wrote:
У меня чего-то лось отказался воспроизводится через плэйлист АИМпа...

а у меня при перегонке в мп3 тем же АИМПом чето паузы между песнями съехали секунд на 5... т.е. за 2-3 с. до конца песни как иголка прыгает, а потом уже пауза между песнями. :vic: и, соответственно, отдельно каждая песня играет с концом предыдущей, но без своего... конца :cry:
а албум отличный!!! :true:
:thanx: :thanx: :thanx:


Top
 Profile E-mail  
 
 
PostPosted: 20 Jul 2010 
Хиппей (support team)
User avatar
Joined: 30 Jul 2007
Posts: 106327
Lоcаtion: Киев (Kyiv, UA)
Age: 45
Name: Andrey
metallroll wrote:
а у меня при перегонке в мп3 тем же АИМПом чето паузы между песнями съехали секунд на 5...

Ген, версия АИМПа какая у тебя? В последней этого глюка не должно быть.

_________________


Top
 Profile E-mail  
 
 
PostPosted: 20 Jul 2010 
metallpaparazzy
User avatar
Joined: 20 Dec 2009
Posts: 674
Lоcаtion: Днепропетровск
Age: 43
Name: Геннадий
АИМП2. это какя, а тоя хз... сколько давил лосей, все было отлично... первый раз такая оказия :vic:


Top
 Profile E-mail  
 
 
PostPosted: 20 Jul 2010 
Хиппей (support team)
User avatar
Joined: 30 Jul 2007
Posts: 106327
Lоcаtion: Киев (Kyiv, UA)
Age: 45
Name: Andrey
Ну значит шота не так в куе :vic: А в этом ничо не понимаю, лосей не мучаю ваще :oops:

_________________


Top
 Profile E-mail  
 
 
PostPosted: 21 Jul 2010 
metallpaparazzy
User avatar
Joined: 20 Dec 2009
Posts: 674
Lоcаtion: Днепропетровск
Age: 43
Name: Геннадий
дык, плеер мп3шный лосей не видит... :vic: а охота ж слухануть. ну не тюремную ж лирику в маршрутке по дороге на работу слухать... :fingal:


Top
 Profile E-mail  
 
 
PostPosted: 21 Jul 2010 
Хиппей (support team)
User avatar
Joined: 30 Jul 2007
Posts: 106327
Lоcаtion: Киев (Kyiv, UA)
Age: 45
Name: Andrey
Блин... ну я завтра попробую ужать в мп3 :oops:

_________________


Top
 Profile E-mail  
 
 
PostPosted: 21 Jul 2010 
Прокъмитолист
User avatar
Joined: 12 Aug 2007
Posts: 6469
Lоcаtion: Санктъ-Петербуркъ
Age: 50
Name: Олекъ
посмотрел я куй - очень большие зазоры между песнями. либо метод определения зазоров был выставлен неправильно, либо при мастеринге накосячили (что более вероятно, т.к. все зазоры примерно одинаковы, по 8 секунд) :umnik:

Ген, сотри просто в куе все индексы 00 и попробуй еще раз :pardon:

_________________
прокъметол - это музыко, от которово есть прок (ы)


Top
 Profile  
 
 
PostPosted: 21 Jul 2010 
metallpaparazzy
User avatar
Joined: 20 Dec 2009
Posts: 674
Lоcаtion: Днепропетровск
Age: 43
Name: Геннадий
spiralarch wrote:
Ген, сотри просто в куе все индексы 00 и попробуй еще раз

попробую... но, уже завтра... а сейчас пора спать.... :smile: спать...


Top
 Profile E-mail  
 
 
PostPosted: 21 Jul 2010 
Хиппей (support team)
User avatar
Joined: 30 Jul 2007
Posts: 106327
Lоcаtion: Киев (Kyiv, UA)
Age: 45
Name: Andrey
http://lossless-galaxy.ru/inostr/inostr ... -2010.html

Ой, как неприятно такое читать... :fingal:

_________________


Top
 Profile E-mail  
 
 
PostPosted: 21 Jul 2010 
Прокъмитолист
User avatar
Joined: 12 Aug 2007
Posts: 6469
Lоcаtion: Санктъ-Петербуркъ
Age: 50
Name: Олекъ
Scatterbrain wrote:
Ой, как неприятно такое читать...

нормально. страна должна знать своих героев :crazy:

_________________
прокъметол - это музыко, от которово есть прок (ы)


Top
 Profile  
 
Display posts from previous:  Sort by  
Post new topic Reply to topic  [ 24 posts ]  Go to page 1, 2  Next

All times are UTC + 3 hours


Who is online

Users browsing this forum: No registered users and 1 guest


You cannot post new topics in this forum
You cannot reply to topics in this forum
You cannot edit your posts in this forum
You cannot delete your posts in this forum
You cannot post attachments in this forum

Search for:
Яндекс.Метрика
Powered by phpBB © 2000, 2002, 2005, 2007 phpBB Group