\m/ 80's metal \m/

Информационно-аналитический форум "80 см пыли" (In Search We Trust) "У нас никто никуда не спешит"
Me For You - http://me-4u.com
It is currently 16 Nov 2018

All times are UTC + 3 hours

Spoiler
Chat - temporary registration for foreign users (please leave your application here)







Post new topic Reply to topic  [ 1 post ] 
Author Message
 
PostPosted: 30 May 2010 
труъ антисионист
User avatar
Joined: 01 Aug 2007
Posts: 4541
Lоcаtion: Откуда и большинство из нас
Age: 37
Name: Дядя Вова
Image
Группа: Magnitude 9
Альбом: Decoding the Soul
Год: 2004
Лейбл: InsideOut
Стиль: Prog. Metal
Страна: USA
Формат: APE / Log / Cue / Covers
Размер: 375 Mb

**********************************************************************************

Line Up:

Corey Brown – Lead Vocals
Rob Johnson – Guitars
Joseph Anastacio Glean – Keyboards
Ian Ringler – Bass
John Homan - Drums


Tracks:
01. New Dimension (4:30)
02. Lies Within The Truth (6:00)
03. Facing The Unknown (5:14)
04. To Find A Reason (5:26)
05. Walk Through The Fire (4:48)
06. Dead In Their Tracks (4:03)
07. Changes (5:19)
08. Torn (3:30)
09. Thirty Days Of Night (3:33)
10. Sands Of Time (3:31)


LOG
Exact Audio Copy V0.99 prebeta 4 from 23. January 2008

EAC extraction logfile from 2. May 2009, 14:45

Magnitude Nine / Decoding The Soul

Used drive : TEAC CD-W516EB Adapter: 0 ID: 0

Read mode : Secure
Utilize accurate stream : Yes
Defeat audio cache : Yes
Make use of C2 pointers : No

Read offset correction : 685
Overread into Lead-In and Lead-Out : No
Fill up missing offset samples with silence : Yes
Delete leading and trailing silent blocks : No
Null samples used in CRC calculations : No
Used interface : Installed external ASPI interface
Gap handling : Not detected, thus appended to previous track

Used output format : User Defined Encoder
Selected bitrate : 1024 kBit/s
Quality : High
Add ID3 tag : Yes
Command line compressor : C:\Program Files\Flac\flac.exe
Additional command line options : -6 -V -T "ARTIST=%a" -T "TITLE=%t" -T "ALBUM=%g" -T "DATE=%y" -T "TRACKNUMBER=%n" -T "GENRE=%m" -T "COMMENT=%e" %s -o %d
Use compression offset : 6


TOC of the extracted CD

Track | Start | Length | Start sector | End sector
---------------------------------------------------------
1 | 0:00.00 | 4:29.53 | 0 | 20227
2 | 4:29.53 | 6:00.15 | 20228 | 47242
3 | 10:29.68 | 5:13.53 | 47243 | 70770
4 | 15:43.46 | 5:26.11 | 70771 | 95231
5 | 21:09.57 | 4:48.15 | 95232 | 116846
6 | 25:57.72 | 4:02.44 | 116847 | 135040
7 | 30:00.41 | 5:19.28 | 135041 | 158993
8 | 35:19.69 | 3:29.67 | 158994 | 174735
9 | 38:49.61 | 3:33.07 | 174736 | 190717
10 | 42:22.68 | 3:30.63 | 190718 | 206530


Track 1

Filename N:\EAC\sole-survivor\Magnitude 9\01-New Dimension.wav

Peak level 99.0 %
Track quality 100.0 %
Copy CRC AFF13BD6
Cannot be verified as accurate (confidence 8) [2B3BDE6F], AccurateRip returned [C45CBF97]
Copy OK

Track 2

Filename N:\EAC\sole-survivor\Magnitude 9\02-Lies Within The Truth.wav

Peak level 99.0 %
Track quality 100.0 %
Copy CRC 667B1F33
Cannot be verified as accurate (confidence 8) [70123A6D], AccurateRip returned [CEBC0E65]
Copy OK

Track 3

Filename N:\EAC\sole-survivor\Magnitude 9\03-Facing The Unknown.wav

Peak level 99.0 %
Track quality 100.0 %
Copy CRC 73A3309F
Cannot be verified as accurate (confidence 8) [237B173C], AccurateRip returned [FFB0201C]
Copy OK

Track 4

Filename N:\EAC\sole-survivor\Magnitude 9\04-To Find A Reason.wav

Peak level 99.0 %
Track quality 100.0 %
Copy CRC 20290CDE
Cannot be verified as accurate (confidence 8) [EE03BED7], AccurateRip returned [A830CE9F]
Copy OK

Track 5

Filename N:\EAC\sole-survivor\Magnitude 9\05-Walk Through The Fire.wav

Peak level 99.0 %
Track quality 99.9 %
Copy CRC 1328F9BF
Cannot be verified as accurate (confidence 8) [D804EEF8], AccurateRip returned [C0036C40]
Copy OK

Track 6

Filename N:\EAC\sole-survivor\Magnitude 9\06-Dead In Their Tracks.wav

Peak level 99.0 %
Track quality 100.0 %
Copy CRC 3F36953F
Cannot be verified as accurate (confidence 8) [3CB90251], AccurateRip returned [3298CB61]
Copy OK

Track 7

Filename N:\EAC\sole-survivor\Magnitude 9\07-Changes.wav

Peak level 99.0 %
Track quality 100.0 %
Copy CRC 482BD1D0
Cannot be verified as accurate (confidence 8) [83E9E3E8], AccurateRip returned [BC433130]
Copy OK

Track 8

Filename N:\EAC\sole-survivor\Magnitude 9\08-Torn.wav

Peak level 99.0 %
Track quality 100.0 %
Copy CRC 9430A34C
Cannot be verified as accurate (confidence 7) [63BA95E4], AccurateRip returned [84A9461C]
Copy OK

Track 9

Filename N:\EAC\sole-survivor\Magnitude 9\09-Thirty Days Of Night.wav

Peak level 99.0 %
Track quality 100.0 %
Copy CRC 74EE22AD
Cannot be verified as accurate (confidence 7) [663CCE00], AccurateRip returned [4FCB0A80]
Copy OK

Track 10

Filename N:\EAC\sole-survivor\Magnitude 9\10-Sands Of Time.wav

Peak level 98.9 %
Track quality 100.0 %
Copy CRC 020EAA3C
Cannot be verified as accurate (confidence 7) [79926C15], AccurateRip returned [BED827A5]
Copy OK


No tracks could be verified as accurate
You may have a different pressing from the one(s) in the database

No errors occurred

End of status report


[youtube]<object width="640" height="385"><param name="movie" value="http://www.youtube.com/v/X6FHjRhRt8o&hl=ru_RU&fs=1&"></param><param name="allowFullScreen" value="true"></param><param name="allowscriptaccess" value="always"></param><embed src="http://www.youtube.com/v/X6FHjRhRt8o&hl=ru_RU&fs=1&" type="application/x-shockwave-flash" allowscriptaccess="always" allowfullscreen="true" width="640" height="385"></embed></object>[/youtube]
===================================DOWNLOAD========================================
Ifolder.ru
Megaupload
Narod.ru

_________________
Image
Image


Top
 Profile  
 
Display posts from previous:  Sort by  
Post new topic Reply to topic  [ 1 post ] 

All times are UTC + 3 hours


Who is online

Users browsing this forum: No registered users and 1 guest


You cannot post new topics in this forum
You cannot reply to topics in this forum
You cannot edit your posts in this forum
You cannot delete your posts in this forum
You cannot post attachments in this forum

Search for:
Яндекс.Метрика
cron
Powered by phpBB © 2000, 2002, 2005, 2007 phpBB Group