\m/ 80's metal \m/

Информационно-аналитический форум "80 см пыли" (In Search We Trust) "У нас никто никуда не спешит"
Me For You - http://me-4u.com
It is currently 18 Sep 2018

All times are UTC + 3 hours

Spoiler
Chat - temporary registration for foreign users (please leave your application here)







Post new topic Reply to topic  [ 1 post ] 
Author Message
 
PostPosted: 21 May 2010 
труъ антисионист
User avatar
Joined: 01 Aug 2007
Posts: 4541
Lоcаtion: Откуда и большинство из нас
Age: 37
Name: Дядя Вова
Image
Группа: Magnitude 9
Альбом: Reality in Focus
Год: 2001
Лейбл: InsideOut/Limb Music
Стиль: Prog. Metal
Страна: USA
Формат: APE / Log / CUE / Covers
Размер: 414 Mb

**********************************************************************************

Line Up:

Corey Brown (Vocals)
Rob Johnson (Guitars)
Kevin Chown (Bass),
John Homan (Drums)
Joseph Anastasio Glean (Keyboards)


Tracks:
01. No Turning Back (6:33)
02. What My Eyes Have Seen (5:35)
03. Far Beyond Illusion (5:39)
04. Afterlife (9:11)
05. The End Of Days (4:39)
06. Lost Along The Way (4:35)
07. Flight Of Icarus (3:54)
08. Temples Of Gold (6:23)
09. Quiet Desperation (5:17)
10. Mind Over Fear (7:35)


LOG
Exact Audio Copy V0.99 prebeta 3 from 28. July 2007

Отчёт EAC об извлечении, выполненном 30. апреля 2009, 19:11

Magnitude 9 / Reality In Focus

Дисковод: _NEC DVD_RW ND-3540A Adapter: 3 ID: 0

Режим чтения : Достоверность
Использование точного потока : Да
Отключение кэша аудио : Да
Использование указателей C2 : Нет

Коррекция смещения при чтении : 48
Способность читать области Lead-in и Lead-out : Нет
Заполнение пропущенных сэмплов тишиной : Да
Удаление блоков с тишиной в начале и конце : Нет
При вычислениях CRC использовались нулевые сэмплы : Да
Интерфейс : Встроенный Win32-интерфейс для Win NT/2000

Выходной формат : Внутренние WAV-операции
Формат сэмплов : 44.100 Гц; 16 бит; стерео


TOC извлечённого CD

Трек | Старт | Длительность | Начальный сектор | Конечный сектор
---------------------------------------------------------------------
1 | 0:00.00 | 6:32.40 | 0 | 29439
2 | 6:32.40 | 5:35.24 | 29440 | 54588
3 | 12:07.64 | 5:39.28 | 54589 | 80041
4 | 17:47.17 | 9:11.15 | 80042 | 121381
5 | 26:58.32 | 4:39.03 | 121382 | 142309
6 | 31:37.35 | 4:35.15 | 142310 | 162949
7 | 36:12.50 | 3:54.07 | 162950 | 180506
8 | 40:06.57 | 6:23.28 | 180507 | 209259
9 | 46:30.10 | 5:16.45 | 209260 | 233004
10 | 51:46.55 | 7:34.55 | 233005 | 267109


Характеристики диапазона извлечения и сообщения об ошибках

Выбранный диапазон

Имя файла D:\Temp\APE_Temp\Magnitude 9 - Reality In Focus.wav

Пиковый уровень 98.8 %
Качество диапазона 100.0 %
CRC теста 0E597FDB
CRC копии 0E597FDB
Копирование... OK

Ошибок не произошло


AccurateRip: сводка

Трек 1 точность не определена (достоверность 3) [CB1FA3E0], AccurateRip вернул [5C51A024]
Трек 2 точность не определена (достоверность 3) [D7D06E68], AccurateRip вернул [F767EAAC]
Трек 3 точность не определена (достоверность 3) [687926DA], AccurateRip вернул [714B7872]
Трек 4 точность не определена (достоверность 3) [89E6D6ED], AccurateRip вернул [91D207D5]
Трек 5 точность не определена (достоверность 3) [F5497D3C], AccurateRip вернул [7675E8A4]
Трек 6 точность не определена (достоверность 3) [07B3594B], AccurateRip вернул [6149A52B]
Трек 7 точность не определена (достоверность 3) [A9208A7B], AccurateRip вернул [E475D4AB]
Трек 8 точность не определена (достоверность 3) [05DE25BC], AccurateRip вернул [A100B290]
Трек 9 точность не определена (достоверность 3) [B53FABFD], AccurateRip вернул [319181E5]
Трек 10 точность не определена (достоверность 3) [377B42E1], AccurateRip вернул [F0D3B209]

Ни один трек не прошёл проверки на точность
В вашей базе может быть иной вариант штамповки диска

Конец отчёта


[youtube]<object width="480" height="385"><param name="movie" value="http://www.youtube.com/v/XpIzENS9rss&hl=ru_RU&fs=1&"></param><param name="allowFullScreen" value="true"></param><param name="allowscriptaccess" value="always"></param><embed src="http://www.youtube.com/v/XpIzENS9rss&hl=ru_RU&fs=1&" type="application/x-shockwave-flash" allowscriptaccess="always" allowfullscreen="true" width="480" height="385"></embed></object>[/youtube]

===================================DOWNLOAD========================================
Mega http://www.megaupload.com/?d=C4XX3DCI
Narod Magnitude 9 - (2000) Reality In Focus.rar
Ifolder http://ifolder.ru/17734907

_________________
Image
Image


Top
 Profile  
 
Display posts from previous:  Sort by  
Post new topic Reply to topic  [ 1 post ] 

All times are UTC + 3 hours


Who is online

Users browsing this forum: No registered users and 3 guests


You cannot post new topics in this forum
You cannot reply to topics in this forum
You cannot edit your posts in this forum
You cannot delete your posts in this forum
You cannot post attachments in this forum

Search for:
Яндекс.Метрика
Powered by phpBB © 2000, 2002, 2005, 2007 phpBB Group