\m/ 80's metal \m/

Информационно-аналитический форум "80 см пыли" (In Search We Trust) "У нас никто никуда не спешит"
Me For You - http://me-4u.com
It is currently 19 Nov 2018

All times are UTC + 3 hours

Spoiler
Chat - temporary registration for foreign users (please leave your application here)







Post new topic Reply to topic  [ 4 posts ] 
Author Message
 
PostPosted: 17 May 2010 
ыыыы
User avatar
Joined: 17 May 2009
Posts: 952
Lоcаtion: Пушкино, МО
Age: 40
Name: Дмитрий
Image


Жанр: Hard Rock
Происхождение исполнителя: Швеция
Год издания: 1986
Год издания данного носителя: 1986
Страна-производитель носителя: Япония
Аудио кодек: FLAC
Тип рипа: image+.cue
Битрейт аудио: lossless
Продолжительность: 47:39
Рип: Собственный
Лейбл: SONET GRAMMOFON/VICTOR
Каталоговый номер: VDP-1106
Матрица: VDP-1106-1-A2D 12 (JVC)

Треклист:

1. Oh Rendezvous 05:29
2. Carry On 04:13
3. Can't Take It 04:42
4. Drama ( instr. ) 01:23
5. Shine 05:51
6. Look In Your Eyes 04:59
7. Give It Back 03:52
8. Out Of The Bunker 04:51
9. World Wide Man 03:57
10. Hotel Party 04:10
10. Mental Masturbation 04:12

"Куй"
REM GENRE "Hard Rock"
REM DATE 1986
REM DISCID 7B0B2B0B
REM COMMENT "ExactAudioCopy v0.99pb5"
PERFORMER "Madison"
TITLE "Best In Show [VDP-1106]"
FILE "Madison - Best In Show [VDP-1106].flac" WAVE
TRACK 01 AUDIO
TITLE "Oh Rendez Vous"
PERFORMER "Madison"
INDEX 00 00:00:00
INDEX 01 00:00:37
TRACK 02 AUDIO
TITLE "Carry On"
PERFORMER "Madison"
INDEX 01 05:29:72
TRACK 03 AUDIO
TITLE "Can't Take It"
PERFORMER "Madison"
INDEX 00 09:41:15
INDEX 01 09:43:12
TRACK 04 AUDIO
TITLE "Drama"
PERFORMER "Madison"
INDEX 00 14:24:50
INDEX 01 14:24:65
TRACK 05 AUDIO
TITLE "Shine"
PERFORMER "Madison"
INDEX 01 15:47:62
TRACK 06 AUDIO
TITLE "Look In Your Eyes"
PERFORMER "Madison"
INDEX 00 21:35:05
INDEX 01 21:39:10
TRACK 07 AUDIO
TITLE "Give It Back (Remixed Version)"
PERFORMER "Madison"
INDEX 00 26:36:62
INDEX 01 26:38:25
TRACK 08 AUDIO
TITLE "Out Of The Bunker"
PERFORMER "Madison"
INDEX 00 30:29:07
INDEX 01 30:30:15
TRACK 09 AUDIO
TITLE "World Wide Man"
PERFORMER "Madison"
INDEX 00 35:20:12
INDEX 01 35:21:10
TRACK 10 AUDIO
TITLE "Hotel Party"
PERFORMER "Madison"
INDEX 00 39:18:15
INDEX 01 39:18:27
TRACK 11 AUDIO
TITLE "Mental Masturbation"
PERFORMER "Madison"
INDEX 00 43:27:70
INDEX 01 43:28:27


"Лог"
Exact Audio Copy V0.99 prebeta 5 from 4. May 2009

EAC extraction logfile from 17. May 2010, 11:43

Madison / Best In Show [VDP-1106]

Used drive : Optiarc DVD RW AD-7200A Adapter: 0 ID: 0

Read mode : Secure
Utilize accurate stream : Yes
Defeat audio cache : Yes
Make use of C2 pointers : No

Read offset correction : 48
Overread into Lead-In and Lead-Out : No
Fill up missing offset samples with silence : Yes
Delete leading and trailing silent blocks : No
Null samples used in CRC calculations : Yes
Used interface : Native Win32 interface for Win NT & 2000

Used output format : User Defined Encoder
Selected bitrate : 128 kBit/s
Quality : High
Add ID3 tag : No
Command line compressor : C:\Program Files\Exact Audio Copy\Flac\flac.exe
Additional command line options : -8 -V -T "artist=%a" -T "title=%t" -T "album=%g" -T "date=%y" -T "tracknumber=%n" -T "genre=%m" -T "comment=EAC 0.9beta4 / FLAC 1.1.0 q6" %s


TOC of the extracted CD

Track | Start | Length | Start sector | End sector
---------------------------------------------------------
1 | 0:00.37 | 5:29.35 | 37 | 24746
2 | 5:29.72 | 4:13.15 | 24747 | 43736
3 | 9:43.12 | 4:41.53 | 43737 | 64864
4 | 14:24.65 | 1:22.72 | 64865 | 71086
5 | 15:47.62 | 5:51.23 | 71087 | 97434
6 | 21:39.10 | 4:59.15 | 97435 | 119874
7 | 26:38.25 | 3:51.65 | 119875 | 137264
8 | 30:30.15 | 4:50.70 | 137265 | 159084
9 | 35:21.10 | 3:57.17 | 159085 | 176876
10 | 39:18.27 | 4:10.00 | 176877 | 195626
11 | 43:28.27 | 4:11.43 | 195627 | 214494


Range status and errors

Selected range

Filename Y:\Музыка\Madison\1986 Best In Show\Madison - Best In Show [VDP-1106].wav

Peak level 85.4 %
Range quality 100.0 %
Copy CRC 9209E4A5
Copy OK

No errors occurred

End of status report


Состав:
Goran Edman: Vocals
Anders Kalsson: Guitars/backing vocals
Mikael Myllynen: Guitars
Conny Sunqvist: Bass/backing vocals
Peter Fredrickson: Drums/backing vocals

Народ

_________________
Витасу до Даймонда как Алсу до Руссоса | При переразмещении - спрашивать разрешение!!


Last edited by iezuit on 17 May 2010, edited 1 time in total.

Top
 Profile  
 
 
PostPosted: 17 May 2010 
А может смените мне статус?..
User avatar
Joined: 24 Dec 2008
Posts: 621
Age: 44
Name: Дмитрий
Спасибо! :thanx:


Top
 Profile  
 
 
PostPosted: 22 May 2010 
Труъ
User avatar
Joined: 15 Dec 2008
Posts: 131
Lоcаtion: Донбасс
Age: 46
Name: Евгений
Очень благодарен за японца! :true: Чумовая банда!


Top
 Profile  
 
 
PostPosted: 20 Jun 2010 
Пионэръ
User avatar
Joined: 20 Jun 2010
Posts: 40
Lоcаtion: Москоw-Сити
Name: Димон
не такой крутой как первый, а вообще жалко что так быстро загнулась группа :meloman:

_________________
)†/_'†º¨ł


Top
 Profile  
 
Display posts from previous:  Sort by  
Post new topic Reply to topic  [ 4 posts ] 

All times are UTC + 3 hours


Who is online

Users browsing this forum: No registered users and 1 guest


You cannot post new topics in this forum
You cannot reply to topics in this forum
You cannot edit your posts in this forum
You cannot delete your posts in this forum
You cannot post attachments in this forum

Search for:
Яндекс.Метрика
Powered by phpBB © 2000, 2002, 2005, 2007 phpBB Group