\m/ 80's metal \m/

Информационно-аналитический форум "80 см пыли" (In Search We Trust) "У нас никто никуда не спешит"
Me For You - http://me-4u.com
It is currently 19 Sep 2018

All times are UTC + 3 hours

Spoiler
Chat - temporary registration for foreign users (please leave your application here)







Post new topic Reply to topic  [ 4 posts ] 
Author Message
 
PostPosted: 16 May 2010 
труъ антисионист
User avatar
Joined: 01 Aug 2007
Posts: 4541
Lоcаtion: Откуда и большинство из нас
Age: 37
Name: Дядя Вова
Image

Группа: Magnitude 9
Альбом: Chaos to Control
Год: 1998
Лейбл: InsideOut
Стиль: Prog. Metal
Страна: USA
Формат: Ape / Log / Cue / Covers
Размер: 530 Mb

**********************************************************************************

Line Up:


Corey Brown (Vocals)
Rob Johnson (Guitars)
Kevin Chown (Bass),
John Homan (Drums)
Joseph Anastasio Glean (Keyboards)


Tracks:
01. End Of Time (6:42)
02. Voices (3:50)
03. Into The Sun (5:53)
04. Keeper Of Your Soul (5:15)
05. Secrets Within (4:42)
06. Another World (5:26)
07. Don't Say (5:18)
08. After Tomorrow (5:42)
09. Y2K (4:34)
10. Writings (6:35)


Total Playing Time: 53:57

LOG
EAC extraction logfile from 23. March 2007, 15:59 for CD
Magnitude 9 / Chaos To Control

Used drive : HL-DT-STCD-RW GCE-8520B Adapter: 3 ID: 2
Read mode : Secure with NO C2, accurate stream, disable cache
Read offset correction : 6
Overread into Lead-In and Lead-Out : No

Used output format : C:\Program Files\FLAC\flac.exe (User Defined Encoder)
128 kBit/s
Additional command line options : -5 -V -T "ARTIST=%a" -T "TITLE=%t" -T "ALBUM=%g" -T "DATE=%y" -T "TRACKNUMBER=%n" -T "GENRE=%m" -T "COMMENT=EAC Flac 1.1.2 -5" %s

Other options :
Fill up missing offset samples with silence : Yes
Delete leading and trailing silent blocks : No
Native Win32 interface for Win NT & 2000


Track 1
Filename I:\My ripps (flac)\M\Magnitude 9\Magnitude 9 - Chaos To Control (1998) [FLAC]\01 - End Of Time.wav

Pre-gap length 0:00:02.00

Peak level 92.9 %
Track quality 100.0 %
Test CRC 72928631
Copy CRC 72928631
Copy OK

Track 2
Filename I:\My ripps (flac)\M\Magnitude 9\Magnitude 9 - Chaos To Control (1998) [FLAC]\02 - Voices.wav

Peak level 98.0 %
Track quality 100.0 %
Test CRC 568BC58C
Copy CRC 568BC58C
Copy OK

Track 3
Filename I:\My ripps (flac)\M\Magnitude 9\Magnitude 9 - Chaos To Control (1998) [FLAC]\03 - Into The Sun.wav

Pre-gap length 0:00:01.33

Peak level 99.8 %
Track quality 100.0 %
Test CRC F85F296D
Copy CRC F85F296D
Copy OK

Track 4
Filename I:\My ripps (flac)\M\Magnitude 9\Magnitude 9 - Chaos To Control (1998) [FLAC]\04 - Keeper Of Your Soul.wav

Peak level 99.7 %
Track quality 100.0 %
Test CRC 6BC29573
Copy CRC 6BC29573
Copy OK

Track 5
Filename I:\My ripps (flac)\M\Magnitude 9\Magnitude 9 - Chaos To Control (1998) [FLAC]\05 - Secrets Within.wav

Peak level 99.7 %
Track quality 100.0 %
Test CRC DC8F9B2C
Copy CRC DC8F9B2C
Copy OK

Track 6
Filename I:\My ripps (flac)\M\Magnitude 9\Magnitude 9 - Chaos To Control (1998) [FLAC]\06 - Another World.wav

Peak level 100.0 %
Track quality 100.0 %
Test CRC EE322AF9
Copy CRC EE322AF9
Copy OK

Track 7
Filename I:\My ripps (flac)\M\Magnitude 9\Magnitude 9 - Chaos To Control (1998) [FLAC]\07 - Don't Say.wav

Peak level 92.9 %
Track quality 100.0 %
Test CRC D6F793E6
Copy CRC D6F793E6
Copy OK

Track 8
Filename I:\My ripps (flac)\M\Magnitude 9\Magnitude 9 - Chaos To Control (1998) [FLAC]\08 - After Tomorrow.wav

Pre-gap length 0:00:02.06

Peak level 99.4 %
Track quality 99.9 %
Test CRC 0C73A3BE
Copy CRC 0C73A3BE
Copy OK

Track 9
Filename I:\My ripps (flac)\M\Magnitude 9\Magnitude 9 - Chaos To Control (1998) [FLAC]\09 - Y2K.wav

Pre-gap length 0:00:01.57

Peak level 98.6 %
Track quality 100.0 %
Test CRC 813FB567
Copy CRC 813FB567
Copy OK

Track 10
Filename I:\My ripps (flac)\M\Magnitude 9\Magnitude 9 - Chaos To Control (1998) [FLAC]\10 - Writings.wav

Pre-gap length 0:00:01.06

Peak level 100.0 %
Track quality 99.9 %
Test CRC DA7E8070
Copy CRC DA7E8070
Copy OK

No errors occured


End of status report


[youtube]<object width="480" height="385"><param name="movie" value="http://www.youtube.com/v/QIh_cWUQa4M&hl=ru_RU&fs=1&"></param><param name="allowFullScreen" value="true"></param><param name="allowscriptaccess" value="always"></param><embed src="http://www.youtube.com/v/QIh_cWUQa4M&hl=ru_RU&fs=1&" type="application/x-shockwave-flash" allowscriptaccess="always" allowfullscreen="true" width="480" height="385"></embed></object>[/youtube]

===================================DOWNLOAD========================================
NAROD Magnitude 9 - (1998) Chaos To Control.rar
MEGAUPLOAD http://www.megaupload.com/?d=XGDWOGLJ

_________________
Image
Image


Top
 Profile  
 
 
PostPosted: 16 May 2010 
Хиппей (support team)
User avatar
Joined: 30 Jul 2007
Posts: 106322
Lоcаtion: Киев (Kyiv, UA)
Age: 45
Name: Andrey
Источник - Вата?

_________________


Top
 Profile E-mail  
 
 
PostPosted: 16 May 2010 
труъ антисионист
User avatar
Joined: 01 Aug 2007
Posts: 4541
Lоcаtion: Откуда и большинство из нас
Age: 37
Name: Дядя Вова
Scatterbrain wrote:
Источник - Вата?

Ру-трекер.

_________________
Image
Image


Top
 Profile  
 
 
PostPosted: 28 May 2010 
Хиппей (support team)
User avatar
Joined: 30 Jul 2007
Posts: 106322
Lоcаtion: Киев (Kyiv, UA)
Age: 45
Name: Andrey
Вов, дык, указывай, плиз :fingal:

_________________


Top
 Profile E-mail  
 
Display posts from previous:  Sort by  
Post new topic Reply to topic  [ 4 posts ] 

All times are UTC + 3 hours


Who is online

Users browsing this forum: No registered users and 2 guests


You cannot post new topics in this forum
You cannot reply to topics in this forum
You cannot edit your posts in this forum
You cannot delete your posts in this forum
You cannot post attachments in this forum

Search for:
Яндекс.Метрика
Powered by phpBB © 2000, 2002, 2005, 2007 phpBB Group