\m/ 80's metal \m/

Информационно-аналитический форум "80 см пыли" (In Search We Trust) "У нас никто никуда не спешит"
Me For You - http://me-4u.com
It is currently 22 Sep 2018

All times are UTC + 3 hours

Spoiler
Chat - temporary registration for foreign users (please leave your application here)







Post new topic Reply to topic  [ 5 posts ] 
Author Message
 
PostPosted: 27 Apr 2010 
Хиппей (support team)
User avatar
Joined: 30 Jul 2007
Posts: 106449
Lоcаtion: Киев (Kyiv, UA)
Age: 45
Name: Andrey
Munetaka Higuchi - 1983 - Destruction - [wv] - CD

Image

Genre: Heavy Metal/Hard Rock
Location: Japan
Format: wv+cue+log+scans (jp2)
Size: 321 Mb


Line up:

Munetaka Higuchi - (drums)
Keiji Katayama & Nobuo Yamada - (vocal)
Kenji Kitajima, Kyoji Yamamoto &
Char Naoto Takenaka - (guitar)
Ken Watanabe & Yoshihiro Naruse - (bass)
Yuki Nakajima - (keyboards)


    1. Law Breaker [M] - 03:37
    2. Jet Fighter - 03:19
    3. Tiger - 04:14
    4. Prayer - 01:33
    5. Runaway from Yesterday - 07:05
    6. In the Dark - 05:00
    7. Death - 04:27
    8. Growin Power - 03:04
    9. Destruction - 07:28

    TPT: 39:47

Японский гитарный хэви-мэтал.
Ничего особенного, но слушается приятно. Чтобы слушателя не грузить гитарными наворотами (хотя здесь нет шреда, а лишь красивые мелодии и соляки), альбом разбит на несколько правильных паззликов - начинается с парочки чисто инструментальных вещей, затем идёт блок с вокалом (на японском), и в финале снова пара инструменталов.

4 балла.

Thanx to SHI from MMT :thanx:

MultiUp l Narod

log
Exact Audio Copy V0.99 prebeta 5 from 4. May 2009

EAC extraction logfile from 20. October 2009, 20:19

Munetaka Higuchi / Destruction

Used drive : MATSHITADVD-ROM SR-8588 Adapter: 1 ID: 1

Read mode : Secure
Utilize accurate stream : Yes
Defeat audio cache : Yes
Make use of C2 pointers : No

Read offset correction : 103
Overread into Lead-In and Lead-Out : No
Fill up missing offset samples with silence : Yes
Delete leading and trailing silent blocks : No
Null samples used in CRC calculations : Yes
Used interface : Installed external ASPI interface

Used output format : Internal WAV Routines
Sample format : 44.100 Hz; 16 Bit; Stereo


TOC of the extracted CD

Track | Start | Length | Start sector | End sector
---------------------------------------------------------
1 | 0:00.00 | 3:37.07 | 0 | 16281
2 | 3:37.07 | 3:19.45 | 16282 | 31251
3 | 6:56.52 | 4:14.42 | 31252 | 50343
4 | 11:11.19 | 1:33.25 | 50344 | 57343
5 | 12:44.44 | 7:05.67 | 57344 | 89285
6 | 19:50.36 | 5:00.24 | 89286 | 111809
7 | 24:50.60 | 4:27.35 | 111810 | 131869
8 | 29:18.20 | 3:04.07 | 131870 | 145676
9 | 32:22.27 | 7:29.39 | 145677 | 179390


Range status and errors

Selected range

Filename C:\EAC\Munetaka Higuchi - Destruction.wav

Peak level 100.0 %
Range quality 99.9 %
Test CRC 6A17A5FC
Copy CRC 6A17A5FC
Copy OK

No errors occurred


AccurateRip summary

Track 1 not present in database
Track 2 not present in database
Track 3 not present in database
Track 4 not present in database
Track 5 not present in database
Track 6 not present in database
Track 7 not present in database
Track 8 not present in database
Track 9 not present in database

None of the tracks are present in the AccurateRip database

End of status report



cue
REM GENRE "Heavy Metal"
REM DATE 1986
REM DISCID 7B095709
REM COMMENT "ExactAudioCopy v0.99pb5"
CATALOG 4988001949381
PERFORMER "Munetaka Higuchi"
TITLE "Destruction"
FILE "Munetaka Higuchi - Destruction.wav" WAVE
TRACK 01 AUDIO
TITLE "Law Breaker [M]"
PERFORMER "Munetaka Higuchi"
ISRC JPCO08316400
INDEX 01 00:00:00
TRACK 02 AUDIO
TITLE "Jet Fighter"
PERFORMER "Munetaka Higuchi"
ISRC JPCO08316410
INDEX 01 03:37:07
TRACK 03 AUDIO
TITLE "Tiger"
PERFORMER "Munetaka Higuchi"
ISRC JPCO08316420
INDEX 01 06:56:52
TRACK 04 AUDIO
TITLE "Prayer"
PERFORMER "Munetaka Higuchi"
ISRC JPCO08316430
INDEX 01 11:11:19
TRACK 05 AUDIO
TITLE "Runaway From Yesterday"
PERFORMER "Munetaka Higuchi"
ISRC JPCO08316440
INDEX 01 12:44:44
TRACK 06 AUDIO
TITLE "In The Dark"
PERFORMER "Munetaka Higuchi"
ISRC JPCO08316450
INDEX 01 19:50:36
TRACK 07 AUDIO
TITLE "Death"
PERFORMER "Munetaka Higuchi"
ISRC JPCO08316460
INDEX 01 24:50:60
TRACK 08 AUDIO
TITLE "Growing Power"
PERFORMER "Munetaka Higuchi"
ISRC JPCO08316470
INDEX 01 29:18:20
TRACK 09 AUDIO
TITLE "Destruction"
PERFORMER "Munetaka Higuchi"
ISRC JPCO08316480
INDEX 01 32:22:27

_________________


Top
 Profile E-mail  
 
 
PostPosted: 19 Dec 2010 
Хиппей (support team)
User avatar
Joined: 30 Jul 2007
Posts: 106449
Lоcаtion: Киев (Kyiv, UA)
Age: 45
Name: Andrey
Это... альбом кто-то просил на форуме. И тишина. А меж тем тихонько так его уже больше 2000 раз скачали :crazy:

_________________


Top
 Profile E-mail  
 
 
PostPosted: 06 Jan 2011 
Работнечег
User avatar
Joined: 28 Aug 2007
Posts: 5409
Lоcаtion: г. Москва
Age: 29
Name: Дима
:shok:


Top
 Profile E-mail  
 
 
PostPosted: 06 Jan 2011 
Доктор энтомологии
User avatar
Joined: 22 Jan 2009
Posts: 9328
Lоcаtion: Даугавпилс
Age: 43
Name: Алексей
Спасибо Андрей :thanx: послухаем что за зверь... пентаграмма тока смущает :nuu:


Top
 Profile  
 
 
PostPosted: 06 Jan 2011 
Thrasher
User avatar
Joined: 07 Oct 2007
Posts: 2756
Lоcаtion: Russia, Moscow
Age: 34
Name: Drunk & Evil
Entomologist wrote:
пентаграмма тока смущает :nuu:


чем интересно? :crazy:

_________________
ВОДКА, БАБЫ И БЛЮЗ / 40° till death... :bodun:
One time we saw some hookers, but when we got closer, we realised it was Mötley Crüe. ©


Top
 Profile  
 
Display posts from previous:  Sort by  
Post new topic Reply to topic  [ 5 posts ] 

All times are UTC + 3 hours


Who is online

Users browsing this forum: No registered users and 2 guests


You cannot post new topics in this forum
You cannot reply to topics in this forum
You cannot edit your posts in this forum
You cannot delete your posts in this forum
You cannot post attachments in this forum

Search for:
Яндекс.Метрика
Powered by phpBB © 2000, 2002, 2005, 2007 phpBB Group