\m/ 80's metal \m/

Информационно-аналитический форум "80 см пыли" (In Search We Trust) "У нас никто никуда не спешит"
Me For You - http://me-4u.com
It is currently 22 Sep 2018

All times are UTC + 3 hours

Spoiler
Chat - temporary registration for foreign users (please leave your application here)







Post new topic Reply to topic  [ 30 posts ]  Go to page Previous  1, 2
Author Message
 
PostPosted: 20 Jul 2011 
Персональный статус
User avatar
Joined: 02 Jul 2009
Posts: 293
Name: Александр
Не знаю Андрюх . Дурак наверное . Столько времени ищу всё это хозяйство.... А менялся в своё время только мп3 .


Top
 Profile E-mail  
 
 
PostPosted: 20 Jul 2011 
Хиппей (support team)
User avatar
Joined: 30 Jul 2007
Posts: 106449
Lоcаtion: Киев (Kyiv, UA)
Age: 45
Name: Andrey
Ну главное чтоб диск пришёл, остальное йорунда, по большому счету :dance:

_________________


Top
 Profile E-mail  
 
 
PostPosted: 11 Feb 2012 
Персональный статус
User avatar
Joined: 29 Sep 2009
Posts: 271
Lоcаtion: Надым
Age: 40
Name: Виталий
На рутрекере появился :true:
http://rutracker.org/forum/viewtopic.php?t=3924274


Top
 Profile E-mail  
 
 
PostPosted: 13 Feb 2012 
Персональный статус
User avatar
Joined: 22 Oct 2011
Posts: 352
Lоcаtion: Moscow
Age: 59
Name: Серёжа
Ё Мазар! Понятно же, что лось чисто компьютерный формат и слепить из него полноценный диск ни за что не получиться. И звук и оформление все будет не настоящее. Если кто-то скажет, например, у меня есть такой-то диск, а другой ответит, что у меня болванка с него, это что, будет равноценно?
А вообще-то, в инете, наверное, сотня релизеров и сотня тысяч качальщиков. И заливается (за очень редким исключением) то, что совершенно спокойно можно купить в магазине без всяких торгов и ебаев. А что подороже и поинтереснее в качестве, хотя бы лосином, хрен найдешь. Или релизеры такие диски не покупают, или сортируют, что лить, а что нет. За последние три месяца из всего скачанного я заболванил, может быть десяток и, разумеется, при первой возможности, буду покупать. Остальное проскочило, как через прямую кишку, и даже на слуху ничего не осталось.


Top
 Profile E-mail  
 
 
PostPosted: 28 Jun 2012 
Хиппей (support team)
User avatar
Joined: 30 Jul 2007
Posts: 106449
Lоcаtion: Киев (Kyiv, UA)
Age: 45
Name: Andrey
Запрос закрыт?

_________________


Top
 Profile E-mail  
 
 
PostPosted: 28 Jun 2012 
Хиппей (support team)
User avatar
Joined: 30 Jul 2007
Posts: 106449
Lоcаtion: Киев (Kyiv, UA)
Age: 45
Name: Andrey
Mud Slick - 1993 - Keep Crawlin' In The Mud [ape]

Image

Genre: Hard Rock / Hard & Heavy
Location: Switzerland
Format: ape + cue + log + no scans
Size: 331 Mb


Image

    1. Licence to Touch - 04:17
    2. Girls Are on Fire - 04:33
    3. Manhunt - 06:10
    4. Slow Down - 04:10
    5. Little Girl Don't Talk Too Much - 04:31
    6. Inside Pressure - 04:38
    7. Money - 05:19
    8. Back on Track - 03:35
    9. Blood Justice - 03:51
    10. Rain - 04:02

    TPT: 45:09

MultiUp l Narod

Взято отсюда: http://rutracker.org/forum/viewtopic.php?t=3924274

Мощный хард-рок, иногда мелодичный хэви под олдскул.
Motley Crue, Whitesnake и прочие герои сидят, слушают и завидуют новым.
Альбом понравился, но... но... всё это было уже в 80-х. То есть - очень хорошая копия.
Оценка за исполнение и качество: 7/10

phpBB [youtube]


log
Exact Audio Copy V0.99 prebeta 4 from 23. January 2008

EAC extraction logfile from 30. January 2012, 20:40

Mud Slick / Keep Crawlin' In The Mud

Used drive : PIONEER DVD-RW DVR-212 Adapter: 5 ID: 0

Read mode : Secure
Utilize accurate stream : Yes
Defeat audio cache : Yes
Make use of C2 pointers : No

Read offset correction : 48
Overread into Lead-In and Lead-Out : No
Fill up missing offset samples with silence : Yes
Delete leading and trailing silent blocks : No
Null samples used in CRC calculations : Yes
Used interface : Native Win32 interface for Win NT & 2000

Used output format : Internal WAV Routines
Sample format : 44.100 Hz; 16 Bit; Stereo


TOC of the extracted CD

Track | Start | Length | Start sector | End sector
---------------------------------------------------------
1 | 0:00.37 | 4:17.63 | 37 | 19374
2 | 4:18.25 | 4:33.37 | 19375 | 39886
3 | 8:51.62 | 6:11.15 | 39887 | 67726
4 | 15:03.02 | 4:10.63 | 67727 | 86539
5 | 19:13.65 | 4:31.70 | 86540 | 106934
6 | 23:45.60 | 4:39.30 | 106935 | 127889
7 | 28:25.15 | 5:20.07 | 127890 | 151896
8 | 33:45.22 | 3:35.55 | 151897 | 168076
9 | 37:21.02 | 3:53.30 | 168077 | 185581
10 | 41:14.32 | 4:02.03 | 185582 | 203734


Range status and errors

Selected range

Filename D:\temp\Mud Slick - Keep Crawlin' In The Mud.wav

Peak level 100.0 %
Range quality 100.0 %
Copy CRC 60032953
Copy OK

No errors occurred


AccurateRip summary

Track 1 not present in database
Track 2 not present in database
Track 3 not present in database
Track 4 not present in database
Track 5 not present in database
Track 6 not present in database
Track 7 not present in database
Track 8 not present in database
Track 9 not present in database
Track 10 not present in database

None of the tracks are present in the AccurateRip database

End of status report

cue
REM DATE 1993
REM DISCID 750A9C0A
REM COMMENT "ExactAudioCopy v0.99pb4"
CATALOG 4988002296866
PERFORMER "Mud Slick"
TITLE "Keep Crawlin' In The Mud"
FILE "Mud Slick - Keep Crawlin' In The Mud.ape" WAVE
TRACK 01 AUDIO
TITLE "Licence To Touch"
PERFORMER "Mud Slick"
INDEX 00 00:00:00
INDEX 01 00:00:37
TRACK 02 AUDIO
TITLE "Girls Are On Fire"
PERFORMER "Mud Slick"
INDEX 00 04:18:16
INDEX 01 04:18:25
TRACK 03 AUDIO
TITLE "Manhunt"
PERFORMER "Mud Slick"
INDEX 00 08:51:46
INDEX 01 08:51:62
TRACK 04 AUDIO
TITLE "Slow Down"
PERFORMER "Mud Slick"
INDEX 00 15:02:21
INDEX 01 15:03:02
TRACK 05 AUDIO
TITLE "Little Girl Don't Talk Too Much"
PERFORMER "Mud Slick"
INDEX 00 19:13:03
INDEX 01 19:13:65
TRACK 06 AUDIO
TITLE "Inside Pressure"
PERFORMER "Mud Slick"
INDEX 00 23:45:23
INDEX 01 23:45:60
TRACK 07 AUDIO
TITLE "Money"
PERFORMER "Mud Slick"
INDEX 00 28:24:11
INDEX 01 28:25:15
TRACK 08 AUDIO
TITLE "Back On Track"
PERFORMER "Mud Slick"
INDEX 00 33:44:61
INDEX 01 33:45:22
TRACK 09 AUDIO
TITLE "Blood Justice"
PERFORMER "Mud Slick"
INDEX 00 37:20:33
INDEX 01 37:21:02
TRACK 10 AUDIO
TITLE "Rain"
PERFORMER "Mud Slick"
INDEX 00 41:12:58
INDEX 01 41:14:32

spectrum
Image

_________________


Top
 Profile E-mail  
 
 
PostPosted: 15 Feb 2015 
А может смените мне статус?..
User avatar
Joined: 06 Sep 2007
Posts: 808
Lоcаtion: СПб
Age: 63
Name: Сергей
но... но... всё это было уже в 80-х. :umnik: 80s.takemetal.com?


Top
 Profile  
 
 
PostPosted: 15 Feb 2015 
А может смените мне статус?..
User avatar
Joined: 06 Sep 2007
Posts: 808
Lоcаtion: СПб
Age: 63
Name: Сергей
или в 70-х?
10. Rain - 04:02


Top
 Profile  
 
 
PostPosted: 26 Feb 2015 
BANNED
User avatar
Joined: 23 Jul 2012
Posts: 682
Name: Владимир
ССЫЛКИ ВЕЗДЕ! НО Я БОЮСЬ ТЕПЕРЬ............


Top
 Profile E-mail  
 
 
PostPosted: 26 Feb 2015 
Хиппей (support team)
User avatar
Joined: 30 Jul 2007
Posts: 106449
Lоcаtion: Киев (Kyiv, UA)
Age: 45
Name: Andrey
ССЫЛКИ ВЕЗДЕ! НО Я БОЮСЬ ТЕПЕРЬ............

Потеют ладошки, подмышки и разрез между булками? :slo:











Ну вот и как его после таких уникальных фраз банить, а? :crazy: :fingal: :cry: :dash:

_________________


Top
 Profile E-mail  
 
Display posts from previous:  Sort by  
Post new topic Reply to topic  [ 30 posts ]  Go to page Previous  1, 2

All times are UTC + 3 hours


Who is online

Users browsing this forum: No registered users and 1 guest


You cannot post new topics in this forum
You cannot reply to topics in this forum
You cannot edit your posts in this forum
You cannot delete your posts in this forum
You cannot post attachments in this forum

Search for:
Яндекс.Метрика
Powered by phpBB © 2000, 2002, 2005, 2007 phpBB Group