\m/ 80's metal \m/

Информационно-аналитический форум "80 см пыли" (In Search We Trust) "У нас никто никуда не спешит"
Me For You - http://me-4u.com
It is currently 15 Nov 2018

All times are UTC + 3 hours

Spoiler
Chat - temporary registration for foreign users (please leave your application here)







Post new topic Reply to topic  [ 9 posts ] 
Author Message
 
PostPosted: 05 Apr 2010 
ыыыы
User avatar
Joined: 17 May 2009
Posts: 952
Lоcаtion: Пушкино, МО
Age: 40
Name: Дмитрий
Image


Жанр: Heavy Metal
Происхождение исполнителя: Англия
Год издания: 1986
Год издания данного носителя: 1986
Страна-производитель носителя: Япония
Тип рипа: wav
Битрейт аудио: lossless
Продолжительность: 44:52
Рип: Собственный
Лейбл: GWR/VICTOR
Каталоговый номер: VDP-1140
Матрица: VDP-1140-1-U 1 E 12 (JVC)

Треклист:
1. Deaf Forever 04:27
2. Nothing Up My Sleeve 03:12
3. Ain't My Crime 03:43
4. Claw 03:32
5. Mean Machine 02:56
6. Built for Speed 04:56
7. Ridin' with the Driver 03:47
8. Doctor Rock 03:38
9. Orgasmatron 05:24
10. On The Road (Live) 05:01
11. Steal Your Face (Live) 04:16

"Куй"
REM GENRE Hard Rock
REM DATE 1986
PERFORMER "Motorhead"
TITLE "Orgasmatron [VDP-1140]"
FILE "Motorhead - Orgasmatron [VDP-1140].wav" WAVE
TRACK 01 AUDIO
TITLE "Deaf Forever"
INDEX 01 00:00:00
TRACK 02 AUDIO
TITLE "Nothing Up My Sleeve"
INDEX 01 04:26:48
TRACK 03 AUDIO
TITLE "Ain't My Crime"
INDEX 01 07:38:33
TRACK 04 AUDIO
TITLE "Claw"
INDEX 01 11:21:23
TRACK 05 AUDIO
TITLE "Mean Machine"
INDEX 01 14:53:10
TRACK 06 AUDIO
TITLE "Built For Speed"
INDEX 01 17:49:10
TRACK 07 AUDIO
TITLE "Ridin' With The Driver"
INDEX 01 22:45:28
TRACK 08 AUDIO
TITLE "Doctor Rock"
INDEX 01 26:32:50
TRACK 09 AUDIO
TITLE "Orgasmatron"
INDEX 01 30:10:25
TRACK 10 AUDIO
TITLE "On The Road (Live)"
INDEX 01 35:34:45
TRACK 11 AUDIO
TITLE "Steal Your Face (Live)"
INDEX 01 40:36:05


Состав:
Lemmy: Vocals, bass
Phil Campbell: Guitar
Michael "Wurzel" Burston: Guitar
Pete Gill: Drums

Megaupload

#######
Рип сделан в foobar2000

_________________
Витасу до Даймонда как Алсу до Руссоса | При переразмещении - спрашивать разрешение!!


Top
 Profile  
 
 
PostPosted: 05 Apr 2010 
Анатолий
User avatar
Joined: 18 Oct 2008
Posts: 3162
Lоcаtion: Армавир
Age: 41
Name: Анатолий
iezuit

Классика, есть классика! :true:

Спасибо! :thanx:


Top
 Profile E-mail  
 
 
PostPosted: 05 Apr 2010 
Хиппей (support team)
User avatar
Joined: 30 Jul 2007
Posts: 108029
Lоcаtion: Киев (Kyiv, UA)
Age: 45
Name: Andrey
iezuit wrote:
Рип сделан в foobar2000

:scratch:

_________________


Top
 Profile E-mail  
 
 
PostPosted: 05 Apr 2010 
А может смените мне статус?..
Joined: 03 Jul 2009
Posts: 800
Lоcаtion: Serbia
Name: Laki
Thanks for all Japanese cd's!!!!


Top
 Profile E-mail  
 
 
PostPosted: 05 Apr 2010 
ыыыы
User avatar
Joined: 17 May 2009
Posts: 952
Lоcаtion: Пушкино, МО
Age: 40
Name: Дмитрий
Scatterbrain
не ЕАКом- диск идеальный а даёт ошибку копирования.

_________________
Витасу до Даймонда как Алсу до Руссоса | При переразмещении - спрашивать разрешение!!


Top
 Profile  
 
 
PostPosted: 05 Apr 2010 
Хиппей (support team)
User avatar
Joined: 30 Jul 2007
Posts: 108029
Lоcаtion: Киев (Kyiv, UA)
Age: 45
Name: Andrey
Дим, спасибо! :thanx:

Мне ващета пофек, всё равно слушаю лося с компа. Так, для профилактики и прот0колу спросил :dance:

_________________


Top
 Profile E-mail  
 
 
PostPosted: 05 Apr 2010 
ыыыы
User avatar
Joined: 17 May 2009
Posts: 952
Lоcаtion: Пушкино, МО
Age: 40
Name: Дмитрий
Quote:
Мне ващета пофек
Мне тоже!!!! :true:
Всем металлического угару и треша! а реп- это кал и суксь!!

_________________
Витасу до Даймонда как Алсу до Руссоса | При переразмещении - спрашивать разрешение!!


Top
 Profile  
 
 
PostPosted: 06 Apr 2010 
Motörheadache
User avatar
Joined: 04 Feb 2010
Posts: 1294
Lоcаtion: Впереди- горы,позади-степи
Age: 45
Name: Александр
iezuit wrote:
реп- это кал и суксь!!

:nunu: так их,так :viking:
Моторбашка рулезз ! :true:

_________________
Eine Nation, Ein Land, Eine Schnaps!

Наш священный долг:защищать Родину,и соблюдать правила личной гигиены....!


Top
 Profile E-mail  
 
 
PostPosted: 06 Apr 2010 
HAMMER
User avatar
Joined: 16 May 2009
Posts: 5447
Lоcаtion: Тверь
Age: 45
Name: Александр
Вчерась смотрел их концерт в HD качестве ,вот красотища то . :true:


Top
 Profile E-mail  
 
Display posts from previous:  Sort by  
Post new topic Reply to topic  [ 9 posts ] 

All times are UTC + 3 hours


Who is online

Users browsing this forum: No registered users and 1 guest


You cannot post new topics in this forum
You cannot reply to topics in this forum
You cannot edit your posts in this forum
You cannot delete your posts in this forum
You cannot post attachments in this forum

Search for:
Яндекс.Метрика
Powered by phpBB © 2000, 2002, 2005, 2007 phpBB Group