\m/ 80's metal \m/

Информационно-аналитический форум "80 см пыли" (In Search We Trust) "У нас никто никуда не спешит"
Me For You - http://me-4u.com
It is currently 19 Sep 2018

All times are UTC + 3 hours

Spoiler
Chat - temporary registration for foreign users (please leave your application here)







Post new topic Reply to topic  [ 5 posts ] 
Author Message
 
PostPosted: 04 Apr 2010 
ыыыы
User avatar
Joined: 17 May 2009
Posts: 952
Lоcаtion: Пушкино, МО
Age: 39
Name: Дмитрий
Image


Жанр: Heavy Metal
Происхождение исполнителя: Дания
Год издания: 1994
Год издания данного носителя: 1994
Страна-производитель носителя: Япония
Аудио кодек: FLAC
Тип рипа: image+.cue
Битрейт аудио: lossless
Продолжительность: 28:58
Рип: Собственный
Лейбл: METAL BLADE/NIPPON PHONOGRAM
Каталоговый номер: PHCR-2104
Матрица: PHCR-2104- 1C 11 V IFPI L231 (JVC)

Треклист:
1. The Bell Witch 04:35
2. Is That You, Melissa 04:38
3. Curse of the Pharaohs (live) 04:23
4. Egypt (live) 04:54
5. Come to the Sabbath (live) 06:48
6. Black Funeral (live) 03:40

"Куй"
REM GENRE Metal
REM DATE 1994
REM DISCID 4606CA06
REM COMMENT "ExactAudioCopy v0.99pb5"
PERFORMER "Mercyful Fate"
TITLE "The Bell Witch [PHCR-2104]"
FILE "Mercyful Fate - The Bell Witch [PHCR-2104].flac" WAVE
TRACK 01 AUDIO
TITLE "The Bell Witch"
PERFORMER "Mercyful Fate"
INDEX 00 00:00:00
INDEX 01 00:00:37
TRACK 02 AUDIO
TITLE "Is That You, Melissa"
PERFORMER "Mercyful Fate"
INDEX 00 04:35:11
INDEX 01 04:35:32
TRACK 03 AUDIO
TITLE "Curse Of The Pharaohs"
PERFORMER "Mercyful Fate"
INDEX 00 09:11:63
INDEX 01 09:13:10
TRACK 04 AUDIO
TITLE "Egypt"
PERFORMER "Mercyful Fate"
INDEX 01 13:35:55
TRACK 05 AUDIO
TITLE "Come To The Sabbath"
PERFORMER "Mercyful Fate"
INDEX 01 18:30:02
TRACK 06 AUDIO
TITLE "Black Funeral"
PERFORMER "Mercyful Fate"
INDEX 01 25:17:60


"Лог"
Exact Audio Copy V0.99 prebeta 5 from 4. May 2009

EAC extraction logfile from 4. April 2010, 19:18

Mercyful Fate / The Bell Witch [PHCR-2104]

Used drive : Optiarc DVD RW AD-7200A Adapter: 0 ID: 0

Read mode : Secure
Utilize accurate stream : Yes
Defeat audio cache : Yes
Make use of C2 pointers : No

Read offset correction : 48
Overread into Lead-In and Lead-Out : No
Fill up missing offset samples with silence : Yes
Delete leading and trailing silent blocks : No
Null samples used in CRC calculations : Yes
Used interface : Native Win32 interface for Win NT & 2000

Used output format : User Defined Encoder
Selected bitrate : 128 kBit/s
Quality : High
Add ID3 tag : No
Command line compressor : C:\Program Files\Exact Audio Copy\Flac\flac.exe
Additional command line options : -8 -V -T "artist=%a" -T "title=%t" -T "album=%g" -T "date=%y" -T "tracknumber=%n" -T "genre=%m" -T "comment=EAC 0.9beta4 / FLAC 1.1.0 q6" %s


TOC of the extracted CD

Track | Start | Length | Start sector | End sector
---------------------------------------------------------
1 | 0:00.37 | 4:34.70 | 37 | 20656
2 | 4:35.32 | 4:37.53 | 20657 | 41484
3 | 9:13.10 | 4:22.45 | 41485 | 61179
4 | 13:35.55 | 4:54.22 | 61180 | 83251
5 | 18:30.02 | 6:47.58 | 83252 | 113834
6 | 25:17.60 | 3:40.25 | 113835 | 130359


Range status and errors

Selected range

Filename Y:\Музыка\Mercyful Fate\1994 The Bell Witch\Mercyful Fate - The Bell Witch [PHCR-2104].wav

Peak level 100.0 %
Range quality 100.0 %
Copy CRC 35DB8943
Copy OK

No errors occurred

End of status report


Состав:
Кинг Даймонд и другие официальные лица.

Народ

_________________
Витасу до Даймонда как Алсу до Руссоса | При переразмещении - спрашивать разрешение!!


Top
 Profile  
 
 
PostPosted: 06 Apr 2010 
Motörheadache
User avatar
Joined: 04 Feb 2010
Posts: 1294
Lоcаtion: Впереди- горы,позади-степи
Age: 45
Name: Александр
Хм-м.....Полезная штука :true:
Широ дякую,iezuit ! :thanx:

_________________
Eine Nation, Ein Land, Eine Schnaps!

Наш священный долг:защищать Родину,и соблюдать правила личной гигиены....!


Top
 Profile E-mail  
 
 
PostPosted: 06 Apr 2010 
ыыыы
User avatar
Joined: 17 May 2009
Posts: 952
Lоcаtion: Пушкино, МО
Age: 39
Name: Дмитрий
alexx1973
На здоровье!! :true:

_________________
Витасу до Даймонда как Алсу до Руссоса | При переразмещении - спрашивать разрешение!!


Top
 Profile  
 
 
PostPosted: 07 Apr 2010 
Труъ
User avatar
Joined: 18 Nov 2009
Posts: 126
Lоcаtion: Hellville
Age: 42
Name: Mapeк
Thanks, great upload!


Top
 Profile E-mail  
 
 
PostPosted: 13 Apr 2010 
Зарегился вот...
Joined: 28 Mar 2010
Posts: 3
Lоcаtion: с левого
Name: Фокс
благо :thanx: дарю


Top
 Profile E-mail  
 
Display posts from previous:  Sort by  
Post new topic Reply to topic  [ 5 posts ] 

All times are UTC + 3 hours


Who is online

Users browsing this forum: No registered users and 2 guests


You cannot post new topics in this forum
You cannot reply to topics in this forum
You cannot edit your posts in this forum
You cannot delete your posts in this forum
You cannot post attachments in this forum

Search for:
Яндекс.Метрика
Powered by phpBB © 2000, 2002, 2005, 2007 phpBB Group