\m/ 80's metal \m/

Информационно-аналитический форум "80 см пыли" (In Search We Trust) "У нас никто никуда не спешит"
Me For You - http://me-4u.com
It is currently 19 Sep 2018

All times are UTC + 3 hours

Spoiler
Chat - temporary registration for foreign users (please leave your application here)







Post new topic Reply to topic  [ 8 posts ] 
Author Message
 
PostPosted: 30 Mar 2010 
ыыыы
User avatar
Joined: 17 May 2009
Posts: 952
Lоcаtion: Пушкино, МО
Age: 39
Name: Дмитрий
Image


Жанр: Hard Rock
Происхождение исполнителя: Швеция
Год издания: 1984
Год издания данного носителя: 1986
Страна-производитель носителя: Япония
Аудио кодек: FLAC
Тип рипа: image+.cue
Битрейт аудио: lossless
Продолжительность: 44:49
Рип: Собственный
Лейбл: MARIANN/VICTOR
Каталоговый номер: VDP-1073
Матрица: VDP-1073-1-A3D 13 V (JVC)

Треклист:
1. Lay Down Your Arms 05:10
2. Run Boy 04:45
3. Sneaker 03:27
4. Don't Look Around 04:09
5. Pictures Return 05:11
6. Diamond Mistress 04:05
7. Don't Go 05:30
8. Squealer 03:56
9. Changes 04:30
10. Turn Me Loose 04:06

"Куй"
INDEX 00 00:00:00
INDEX 01 00:00:37
TRACK 02 AUDIO
TITLE "Run Boy"
PERFORMER "Madison"
INDEX 00 05:07:36
INDEX 01 05:10:35
TRACK 03 AUDIO
TITLE "Sneaker"
PERFORMER "Madison"
INDEX 00 09:55:01
INDEX 01 09:55:72
TRACK 04 AUDIO
TITLE "Don't Look Around"
PERFORMER "Madison"
INDEX 00 13:22:11
INDEX 01 13:23:32
TRACK 05 AUDIO
TITLE "Pictures Return"
PERFORMER "Madison"
INDEX 00 17:29:11
INDEX 01 17:31:72
TRACK 06 AUDIO
TITLE "Diamond Mistrees"
PERFORMER "Madison"
INDEX 00 22:39:34
INDEX 01 22:42:62
TRACK 07 AUDIO
TITLE "Don't Go"
PERFORMER "Madison"
INDEX 00 26:46:11
INDEX 01 26:47:45
TRACK 08 AUDIO
TITLE "Squealer"
PERFORMER "Madison"
INDEX 00 32:17:56
INDEX 01 32:17:57
TRACK 09 AUDIO
TITLE "Changes"
PERFORMER "Madison"
INDEX 00 36:12:11
INDEX 01 36:13:20
TRACK 10 AUDIO
TITLE "Turn Me Loose"
PERFORMER "Madison"
INDEX 00 40:39:74
INDEX 01 40:43:07


"Лог"
Exact Audio Copy V0.99 prebeta 5 from 4. May 2009

EAC extraction logfile from 30. March 2010, 10:59

Madison / Diamond Mistress [VDP-1073]

Used drive : ASUS DRW-2014S1T Adapter: 1 ID: 1

Read mode : Secure
Utilize accurate stream : Yes
Defeat audio cache : Yes
Make use of C2 pointers : No

Read offset correction : 6
Overread into Lead-In and Lead-Out : No
Fill up missing offset samples with silence : Yes
Delete leading and trailing silent blocks : No
Null samples used in CRC calculations : Yes
Used interface : Installed external ASPI interface

Used output format : User Defined Encoder
Selected bitrate : 128 kBit/s
Quality : High
Add ID3 tag : No
Command line compressor : C:\Program Files\Exact Audio Copy\Flac\flac.exe
Additional command line options : -8 -V -T "artist=%a" -T "title=%t" -T "album=%g" -T "date=%y" -T "tracknumber=%n" -T "genre=%m" -T "comment=EAC 0.9beta4 / FLAC 1.1.0 q6" %s


TOC of the extracted CD

Track | Start | Length | Start sector | End sector
---------------------------------------------------------
1 | 0:00.37 | 5:09.73 | 37 | 23284
2 | 5:10.35 | 4:45.37 | 23285 | 44696
3 | 9:55.72 | 3:27.35 | 44697 | 60256
4 | 13:23.32 | 4:08.40 | 60257 | 78896
5 | 17:31.72 | 5:10.65 | 78897 | 102211
6 | 22:42.62 | 4:04.58 | 102212 | 120569
7 | 26:47.45 | 5:30.12 | 120570 | 145331
8 | 32:17.57 | 3:55.38 | 145332 | 162994
9 | 36:13.20 | 4:29.62 | 162995 | 183231
10 | 40:43.07 | 4:06.33 | 183232 | 201714


Range status and errors

Selected range

Filename Y:\Музыка\Madison\1986 Diamond Mistress\Madison - Diamond Mistress [VDP-1073].wav

Peak level 84.6 %
Range quality 100.0 %
Copy CRC 6E193B2F
Copy OK

No errors occurred

End of status report


Состав:
Goran Edman: Vocals
Anders Kalsson: Guitars, Backing vocals
Mikael Myllynen: Guitars
Conny Sunqvist: Bass, Backing vocals
Peter Fredrickson: Drums, Backing vocals

Megaupload
Фото

_________________
Витасу до Даймонда как Алсу до Руссоса | При переразмещении - спрашивать разрешение!!


Last edited by iezuit on 17 May 2010, edited 2 times in total.

Top
 Profile  
 
 
PostPosted: 30 Mar 2010 
Анатолий
User avatar
Joined: 18 Oct 2008
Posts: 3115
Lоcаtion: Армавир
Age: 41
Name: Анатолий
Такое у нас есть. ;)

Альбом хорош :true: и думаю многие будут рады заполучить его в таком качестве.

Спасибо за релиз! :thanx:


Top
 Profile E-mail  
 
 
PostPosted: 30 Mar 2010 
ыыыы
User avatar
Joined: 17 May 2009
Posts: 952
Lоcаtion: Пушкино, МО
Age: 39
Name: Дмитрий
:meloman:

_________________
Витасу до Даймонда как Алсу до Руссоса | При переразмещении - спрашивать разрешение!!


Top
 Profile  
 
 
PostPosted: 04 May 2010 
Труъ
User avatar
Joined: 15 Dec 2008
Posts: 131
Lоcаtion: Донбасс
Age: 45
Name: Евгений
Спасибо огромное за японца. :thanx: Великолепный альбом! :true:


Top
 Profile  
 
 
PostPosted: 04 May 2010 
Пионэръ
Joined: 08 Mar 2010
Posts: 36
Lоcаtion: Россия
Age: 38
Name: Иван
Спасибо


Top
 Profile E-mail  
 
 
PostPosted: 04 May 2010 
А может смените мне статус?..
User avatar
Joined: 24 Dec 2008
Posts: 614
Age: 44
Name: Дмитрий
Спасибо! "Японец" всегда приветствуется. :thanx:


Top
 Profile  
 
 
PostPosted: 05 May 2010 
ыыыы
User avatar
Joined: 17 May 2009
Posts: 952
Lоcаtion: Пушкино, МО
Age: 39
Name: Дмитрий
перевод названий песен:
3. Sneaker 03:27 Доносчик/Стукач
8. Squealer 03:56 Нытик/Визгун
:nunu:

_________________
Витасу до Даймонда как Алсу до Руссоса | При переразмещении - спрашивать разрешение!!


Top
 Profile  
 
 
PostPosted: 20 Jun 2010 
Пионэръ
User avatar
Joined: 20 Jun 2010
Posts: 40
Lоcаtion: Москоw-Сити
Name: Димон
как же моя подруга обожает Changes :TU-144:
да и я тоже хехе) :crazy:

_________________
)†/_'†º¨ł


Top
 Profile  
 
Display posts from previous:  Sort by  
Post new topic Reply to topic  [ 8 posts ] 

All times are UTC + 3 hours


Who is online

Users browsing this forum: No registered users and 2 guests


You cannot post new topics in this forum
You cannot reply to topics in this forum
You cannot edit your posts in this forum
You cannot delete your posts in this forum
You cannot post attachments in this forum

Search for:
Яндекс.Метрика
Powered by phpBB © 2000, 2002, 2005, 2007 phpBB Group