\m/ 80's metal \m/

Информационно-аналитический форум "80 см пыли" (In Search We Trust) "У нас никто никуда не спешит"
Me For You - http://me-4u.com
It is currently 22 Sep 2018

All times are UTC + 3 hours

Spoiler
Chat - temporary registration for foreign users (please leave your application here)







Post new topic Reply to topic  [ 11 posts ] 
Author Message
 
PostPosted: 28 Feb 2010 
Прокъмитолист
User avatar
Joined: 12 Aug 2007
Posts: 6471
Lоcаtion: Санктъ-Петербуркъ
Age: 50
Name: Олекъ
MSG [1982] Assault Attack (2009 remaster)
Chrysalis / EMI Records (50999 6 96555 2 4)

Image

Genre: hard'n'heavy
Country: Germany
Contents: flac/cue/log/scans
Size: 316 MB

Tracklist:
01. Assault Attack
02. Rock You To The Ground
03. Dancer
04. Samurai
05. Desert Song
06. Broken Promises
07. Searching For A Reason
08. Ulcer
. . . bonus track:
09. Girl From Uptown (B-side of Dancer)

Playtime: 45:29

Lineup:
Graham Bonnet - vocals
Michael Schenker - guitars
Chris Glen - bass
Ted McKenna - drums
******
Tommy Eyre - keyboards

EAC log
Code:
EAC extraction logfile from 28. February 2010, 4:40 for CD
MSG / Assault Attack (2009)

Used drive  : _NEC    DVD_RW ND-3500AG   Adapter: 0  ID: 2
Read mode   : Secure with NO C2, accurate stream, disable cache
Read offset correction : 48
Overread into Lead-In and Lead-Out : No

Used output format : Internal WAV Routines
                     44.100 Hz; 16 Bit; Stereo

Other options      :
    Fill up missing offset samples with silence : Yes
    Delete leading and trailing silent blocks : No
    Installed external ASPI interface


Range status and errors
Selected range
     Filename E:\Music\MSG - Assault Attack (2009).wav

     Peak level 91.9 %
     Range quality 100.0 %
     CRC 077E8CB4
     Copy OK

No errors occured

End of status report

AccurateRip check
Code:
[Disc ID: 000fc273-0073d235-6e0aa909]
Track   [ CRC    ] Status
01   [b56bb84d] (00/01) No matches
02   [9ea48669] (00/01) No matches
03   [814ff977] (00/01) No matches
04   [b3e5dd99] (00/01) No matches
05   [c292d514] (00/01) No matches
06   [fad12cc9] (00/01) No matches
07   [8be59464] (00/01) No matches
08   [906ced04] (00/01) No matches
09   [1ad56147] (00/01) No matches
Offsetted by 676:
01   [b6af5e88] (01/01) Accurately ripped as in pressing(s) #1
02   [c094a02f] (01/01) Accurately ripped as in pressing(s) #1
03   [33b1b56f] (01/01) Accurately ripped as in pressing(s) #1
04   [ce4f8388] (01/01) Accurately ripped as in pressing(s) #1
05   [770535be] (01/01) Accurately ripped as in pressing(s) #1
06   [e834336b] (01/01) Accurately ripped as in pressing(s) #1
07   [984d359d] (01/01) Accurately ripped as in pressing(s) #1
08   [f76f3fc8] (01/01) Accurately ripped as in pressing(s) #1
09   [4b1b46a6] (01/01) Accurately ripped as in pressing(s) #1

я не забыл, Серёга :true:

_________________
прокъметол - это музыко, от которово есть прок (ы)


Top
 Profile  
 
 
PostPosted: 28 Feb 2010 
Хиппей (support team)
User avatar
Joined: 30 Jul 2007
Posts: 106449
Lоcаtion: Киев (Kyiv, UA)
Age: 45
Name: Andrey
Олег, спасибо :true:

_________________


Top
 Profile E-mail  
 
 
PostPosted: 28 Feb 2010 
Персональный статус
Joined: 28 Sep 2009
Posts: 216
Name: Владимир
СПАСИБО !!!!!!!!!!


Top
 Profile E-mail  
 
 
PostPosted: 28 Feb 2010 
metallpaparazzy
User avatar
Joined: 20 Dec 2009
Posts: 674
Lоcаtion: Днепропетровск
Age: 43
Name: Геннадий
:thanx:
беру из-за бонуса и картиночеггг...


Top
 Profile E-mail  
 
 
PostPosted: 01 Mar 2010 
Почётный металлург
User avatar
Joined: 15 Sep 2007
Posts: 4357
Lоcаtion: Хабаровск
Age: 58
Name: чуть выше
Всё пучком, Олежа. Вижу, что не забыл. Огромнейшее спасибо!

_________________
Коль будешь людей ты ослами честить,
тебе человеком меж них не прослыть!
(Саади, персидский поэт, 13в.)


Top
 Profile  
 
 
PostPosted: 01 Mar 2010 
Генеральный thrasher
User avatar
Joined: 03 Oct 2008
Posts: 3449
Lоcаtion: Ханты-Мансийский АО
Age: 43
Name: Сергей
И за этот :thanx:


Top
 Profile  
 
 
PostPosted: 26 Apr 2010 
Хиппей (support team)
User avatar
Joined: 30 Jul 2007
Posts: 106449
Lоcаtion: Киев (Kyiv, UA)
Age: 45
Name: Andrey
Прослушал :shok:
Альбом так себе, а вот хм... звук... саунд... ремастер едрить...
Это мне только показалось, что вокал дико задвинут за пределы студии, а соло-гитара очень выпирает, и от этого альбом слушается и воспринимается очень мерзко? :fingal:

_________________


Top
 Profile E-mail  
 
 
PostPosted: 26 Apr 2010 
хард н хэвщик (support team)
User avatar
Joined: 02 Jun 2008
Posts: 16880
Lоcаtion: Н.Новгород
Age: 31
Name: Артем
может у тебя джек отвалился из звуковой карточки ? :oops:


Top
 Profile  
 
 
PostPosted: 26 Apr 2010 
Хиппей (support team)
User avatar
Joined: 30 Jul 2007
Posts: 106449
Lоcаtion: Киев (Kyiv, UA)
Age: 45
Name: Andrey
Не, Артём, если у меня что и отвалилось, то оно никак на ушные раковины (во название :shok: ) не влияет, а слушал альбом этот в наушниках сразу после Мановара 2009, который звучит великолепно, но... скажем так, лучше бы они его не записывали вообще :fingal:

_________________


Top
 Profile E-mail  
 
 
PostPosted: 26 Apr 2010 
дядя Миша
User avatar
Joined: 17 Oct 2008
Posts: 3054
Lоcаtion: USSR
Age: 56
Name: Khy
Quote:
слушал альбом этот в наушниках сразу после Мановара 2009

:true: согласен . плешивый альбомчик......
А вот MSG 1982 - хорош , вторая телега супер , а на вокале Боннет!!!!!!!!!!!!!!!


Top
 Profile  
 
 
PostPosted: 26 Apr 2010 
Хиппей (support team)
User avatar
Joined: 30 Jul 2007
Posts: 106449
Lоcаtion: Киев (Kyiv, UA)
Age: 45
Name: Andrey
VARVAAR wrote:
А вот MSG 1982 - хорош , вторая телега супер , а на вокале Боннет!!!!!!!!!!!!!!!

Ну это как бы понятно. А вот со звуком на альбоме всё в порядке? :vic:

_________________


Top
 Profile E-mail  
 
Display posts from previous:  Sort by  
Post new topic Reply to topic  [ 11 posts ] 

All times are UTC + 3 hours


Who is online

Users browsing this forum: No registered users and 1 guest


You cannot post new topics in this forum
You cannot reply to topics in this forum
You cannot edit your posts in this forum
You cannot delete your posts in this forum
You cannot post attachments in this forum

Search for:
Яндекс.Метрика
Powered by phpBB © 2000, 2002, 2005, 2007 phpBB Group