\m/ 80's metal \m/

Информационно-аналитический форум "80 см пыли" (In Search We Trust) "У нас никто никуда не спешит"
Me For You - http://me-4u.com
It is currently 16 Nov 2018

All times are UTC + 3 hours

Spoiler
Chat - temporary registration for foreign users (please leave your application here)







Post new topic Reply to topic  [ 10 posts ] 
Author Message
 
PostPosted: 28 Feb 2010 
Прокъмитолист
User avatar
Joined: 12 Aug 2007
Posts: 6504
Lоcаtion: Санктъ-Петербуркъ
Age: 51
Name: Олекъ
MSG [1981] MSG (2009 remaster)
Chrysalis / EMI Records (50999 2 67649 2 4)

Image

Genre: hard'n'heavy
Country: Germany
Contents: flac/cue/log/scans
Size: 500 MB

Tracklist:
01. Ready To Rock
02. Attack Of The Mad Axeman
03. On And On
04. Let Sleeping Dogs Lie
05. I Want More
06. Never Trust A Stranger
07. Looking For Love
08. Secondary Motion
. . . bonus tracks:
09. Never Trust A Stranger (rough monitor mix)
. . . live at the Manchester Apollo, 1980:
10. Natural Thing [UFO cover]
11. Feels Like A Good Thing
12. Looking Out From Nowhere
13. Shoot Shoot [UFO cover]
14. Doctor Doctor [UFO cover]
15. Lights Out [UFO cover]

Playtime: 71:33

Lineup:
Gary Barden - vocals
Michael Schenker - guitars
Paul Raymond - keyboards and guitars
Chris Glen - bass
Cozy Powell - drums
******
Stephen Stills and Billy Nicholls - backing vocals

EAC log
Code:
EAC extraction logfile from 28. February 2010, 4:06 for CD
MSG / MSG (2009)

Used drive  : _NEC    DVD_RW ND-3500AG   Adapter: 0  ID: 2
Read mode   : Secure with NO C2, accurate stream, disable cache
Read offset correction : 48
Overread into Lead-In and Lead-Out : No

Used output format : Internal WAV Routines
                     44.100 Hz; 16 Bit; Stereo

Other options      :
    Fill up missing offset samples with silence : Yes
    Delete leading and trailing silent blocks : No
    Installed external ASPI interface


Range status and errors
Selected range
     Filename E:\Music\MSG - MSG (2009).wav

     Peak level 100.0 %
     Range quality 99.9 %
     CRC 3CBBD32D
     Copy OK

No errors occured

End of status report

AccurateRip check
Code:
[Disc ID: 00269463-01b72e56-e410c50f]
Track   [ CRC    ] Status
01   [349032bb] (00/02) No matches
02   [06963c30] (00/02) No matches
03   [668524a5] (00/02) No matches
04   [1ed90087] (00/02) No matches
05   [e4a6607c] (00/02) No matches
06   [6656fded] (00/02) No matches
07   [69c2ec98] (00/02) No matches
08   [72ba108f] (00/02) No matches
09   [898c861a] (00/02) No matches
10   [315857ad] (00/02) No matches
11   [30e25cf6] (00/02) No matches
12   [2eedeeb6] (00/02) No matches
13   [d1591e09] (00/02) No matches
14   [4b16ce81] (00/02) No matches
15   [64c0e350] (00/02) No matches
Offsetted by 676:
01   [fb4fda7e] (02/02) Accurately ripped as in pressing(s) #1
02   [ef28cfb9] (02/02) Accurately ripped as in pressing(s) #1
03   [7db4ff31] (02/02) Accurately ripped as in pressing(s) #1
04   [f037d393] (02/02) Accurately ripped as in pressing(s) #1
05   [3a98d07c] (02/02) Accurately ripped as in pressing(s) #1
06   [4f27ea8d] (02/02) Accurately ripped as in pressing(s) #1
07   [3c0323c8] (02/02) Accurately ripped as in pressing(s) #1
08   [396bb8f3] (02/02) Accurately ripped as in pressing(s) #1
09   [a64489b2] (02/02) Accurately ripped as in pressing(s) #1
10   [a5f90a28] (02/02) Accurately ripped as in pressing(s) #1
11   [194677fb] (02/02) Accurately ripped as in pressing(s) #1
12   [ab099ba9] (02/02) Accurately ripped as in pressing(s) #1
13   [e03c16c0] (02/02) Accurately ripped as in pressing(s) #1
14   [c8fa0e04] (02/02) Accurately ripped as in pressing(s) #1
15   [80d0a73b] (02/02) Accurately ripped as in pressing(s) #1

Серёга, я не забыл :true:

_________________
прокъметол - это музыко, от которово есть прок (ы)


Top
 Profile  
 
 
PostPosted: 28 Feb 2010 
Хиппей (support team)
User avatar
Joined: 30 Jul 2007
Posts: 108030
Lоcаtion: Киев (Kyiv, UA)
Age: 45
Name: Andrey
Ой, Олег, а ты этот альбом в ослике шарил раньше? :oops:

_________________


Top
 Profile E-mail  
 
 
PostPosted: 28 Feb 2010 
Прокъмитолист
User avatar
Joined: 12 Aug 2007
Posts: 6504
Lоcаtion: Санктъ-Петербуркъ
Age: 51
Name: Олекъ
не, я пиратку не шарю в осликах :crazy:

_________________
прокъметол - это музыко, от которово есть прок (ы)


Top
 Profile  
 
 
PostPosted: 28 Feb 2010 
Хиппей (support team)
User avatar
Joined: 30 Jul 2007
Posts: 108030
Lоcаtion: Киев (Kyiv, UA)
Age: 45
Name: Andrey
Ага, точно. Там было 17 композиций, а тута 15 :scratch:

_________________


Top
 Profile E-mail  
 
 
PostPosted: 01 Mar 2010 
Почётный металлург
User avatar
Joined: 15 Sep 2007
Posts: 4357
Lоcаtion: Хабаровск
Age: 58
Name: чуть выше
Спасибо, Олекъ! Вечером разберусь с ним.

_________________
Коль будешь людей ты ослами честить,
тебе человеком меж них не прослыть!
(Саади, персидский поэт, 13в.)


Top
 Profile  
 
 
PostPosted: 01 Mar 2010 
Генеральный thrasher
User avatar
Joined: 03 Oct 2008
Posts: 3498
Lоcаtion: Ханты-Мансийский АО
Age: 43
Name: Сергей
Олег,спасибо за альбом и за :true: Мегу!


Top
 Profile  
 
 
PostPosted: 07 Apr 2010 
Зарегился вот...
Joined: 07 Apr 2010
Posts: 3
Lоcаtion: france
Name: krigsten
Thanks


Top
 Profile E-mail  
 
 
PostPosted: 14 Mar 2011 
Зарегился вот...
Joined: 14 Mar 2011
Posts: 2
Lоcаtion: Spain
Name: Elder
gran grupo, gran disco, estupendo aporte...
muchas gracias


Top
 Profile E-mail  
 
 
PostPosted: 15 Jun 2011 
Пионэръ
Joined: 22 Jun 2010
Posts: 16
Lоcаtion: Madrid
Name: Xose
Great upload!!

Thanks a lot :-)


Top
 Profile E-mail  
 
 
PostPosted: 16 Jun 2011 
Хиппей (support team)
User avatar
Joined: 30 Jul 2007
Posts: 108030
Lоcаtion: Киев (Kyiv, UA)
Age: 45
Name: Andrey
mirror: MultiUp l Narod

_________________


Top
 Profile E-mail  
 
Display posts from previous:  Sort by  
Post new topic Reply to topic  [ 10 posts ] 

All times are UTC + 3 hours


Who is online

Users browsing this forum: No registered users and 2 guests


You cannot post new topics in this forum
You cannot reply to topics in this forum
You cannot edit your posts in this forum
You cannot delete your posts in this forum
You cannot post attachments in this forum

Search for:
Яндекс.Метрика
Powered by phpBB © 2000, 2002, 2005, 2007 phpBB Group