\m/ 80's metal \m/

Информационно-аналитический форум "80 см пыли" (In Search We Trust) "У нас никто никуда не спешит"
Me For You - http://me-4u.com
It is currently 17 Dec 2018

All times are UTC + 3 hours

Spoiler
Chat - temporary registration for foreign users (please leave your application here)







Post new topic Reply to topic  [ 16 posts ] 
Author Message
 
PostPosted: 26 Feb 2010 
Труъ
Joined: 16 Dec 2009
Posts: 171
Lоcаtion: perm
Name: Andrew
Messendger - Back

Image

1. Be True 03:58
2. Busted 03:53
3. Nervous Wreck 03:06
4. Can't Live 03:06
5. Rocking 04:11
6. Hard Rock 'n' Roll 03:52
7. Shotgun 02:30
8. Strangers 05:44
9. Hang On Sloopy 04:07
10. Be Bop A Lula 02:27
11. Living Part I (This Crazy Live) 02:12
12. Living Part II (No One Will Stand In the Way) 03:58
13. Living Part III (Ecstasy) 02:02
14. Tomorrow's Dream 06:28
15. Don't Look Back 06:26
16. Lonely Nights 06:53

http://www.metal-archives.com/release.php?id=204410


Top
 Profile E-mail  
 
 
PostPosted: 27 Feb 2010 
Хиппей (support team)
User avatar
Joined: 30 Jul 2007
Posts: 108957
Lоcаtion: Киев (Kyiv, UA)
Age: 45
Name: Andrey
Чёт они вульгарно выглядят для 96 года. Явно альбом-переиздание :scratch:

_________________


Top
 Profile E-mail  
 
 
PostPosted: 27 Feb 2010 
Труъ
Joined: 16 Dec 2009
Posts: 171
Lоcаtion: perm
Name: Andrew
Здесь половина песен из их альбома 1982-го года ;)


Top
 Profile E-mail  
 
 
PostPosted: 27 Feb 2010 
Хиппей (support team)
User avatar
Joined: 30 Jul 2007
Posts: 108957
Lоcаtion: Киев (Kyiv, UA)
Age: 45
Name: Andrey
Ага, уже посмотрел-сравнил...

_________________


Top
 Profile E-mail  
 
 
PostPosted: 16 Jul 2011 
Хиппей (support team)
User avatar
Joined: 30 Jul 2007
Posts: 108957
Lоcаtion: Киев (Kyiv, UA)
Age: 45
Name: Andrey
Хм, а ведь точно - тип справа похож на Хэтфилда :shok:

Image

_________________


Top
 Profile E-mail  
 
 
PostPosted: 16 Jul 2011 
Хиппей (support team)
User avatar
Joined: 30 Jul 2007
Posts: 108957
Lоcаtion: Киев (Kyiv, UA)
Age: 45
Name: Andrey
Страничка барабанщика группы http://www.myspace.com/bazicjonez
И его сайт с современной музыкой http://johnbuchanmusic.com/johnbuchan/H ... fault.aspx

Состав группы на то время:

Brad Sayre - guitar, vocals
Allen Poole - bass, vocals
John Buchan - drums, vocals

_________________


Top
 Profile E-mail  
 
 
PostPosted: 21 Sep 2012 
Rara avis
User avatar
Joined: 27 Jan 2009
Posts: 4724
Name: .
винил :pardon:


Top
 Profile E-mail  
 
 
PostPosted: 21 Sep 2012 
***


Last edited by Вася_металлист_2012 on 14 Dec 2012, edited 1 time in total.

Top
  
 
 
PostPosted: 22 Sep 2012 
Персональный статус
User avatar
Joined: 22 Oct 2011
Posts: 352
Lоcаtion: Moscow
Age: 60
Name: Серёжа
А вот интересно, если он за три грина выставлен, за сколько, реально, его можно купить?


Top
 Profile E-mail  
 
 
PostPosted: 28 Oct 2012 
Rara avis
User avatar
Joined: 27 Jan 2009
Posts: 4724
Name: .
А вот интересно, если он за три грина выставлен, за сколько, реально, его можно купить?

За $12.14 :crazy:


Top
 Profile E-mail  
 
 
PostPosted: 01 Nov 2012 
спирт 100%
User avatar
Joined: 22 Sep 2008
Posts: 4328
Age: 47
Name: Саня
Вот ещё страничка: http://www.reverbnation.com/messendger/songs


Top
 Profile  
 
 
PostPosted: 01 Nov 2012 
консэрваторъ
Joined: 11 Aug 2007
Posts: 16333
Lоcаtion: Псков
Age: 44
Name: Сергей
high2krokus wrote:
8. Strangers 05:44
9. Hang On Sloopy 04:07
10. Be Bop A Lula 02:27
11. Living Part I (This Crazy Live) 02:12
12. Living Part II (No One Will Stand In the Way) 03:58
13. Living Part III (Ecstasy) 02:02
14. Tomorrow's Dream 06:28
15. Don't Look Back 06:26
16. Lonely Nights 06:53

На всякий случай... как все уже заметили (много лет назад :fingal: ) эти 8 вещей составляют их дебютник 82-ого года... лежит здесь...

_________________
THRASH 'EM ALL


Top
 Profile E-mail  
 
 
PostPosted: 11 Sep 2018 
Rara avis
User avatar
Joined: 27 Jan 2009
Posts: 4724
Name: .
Messendger (USA) - Messendger (1982) [FLAC Vinyl Rip]
http://heavymetalrarities.com/forum/vie ... 6f070acdb4


Top
 Profile E-mail  
 
 
PostPosted: 12 Sep 2018 
Хиппей (support team)
User avatar
Joined: 30 Jul 2007
Posts: 108957
Lоcаtion: Киев (Kyiv, UA)
Age: 45
Name: Andrey
:thanx:

Messendger - 1982 - Messendger (JAB Records, JAB III) [flac] - vinyl

Image

mirror: Uloz l Drop l Narod l M-Cloud

cue
REM GENRE Hard Rock
REM DATE 1982
PERFORMER "Messendger "
TITLE "Messendger"
FILE "Messendger - Messendger.flac" WAVE
TRACK 01 AUDIO
TITLE "Strangers"
INDEX 01 00:00:00
TRACK 02 AUDIO
TITLE "Hang On Sloopy (The McCoys cover)"
INDEX 01 05:50:12
TRACK 03 AUDIO
TITLE "Be-Bop-a-Lula (Gene Vincent cover)"
INDEX 01 10:03:54
TRACK 04 AUDIO
TITLE "Living Pt. I - This Crazy Life"
INDEX 01 12:35:13
TRACK 05 AUDIO
TITLE "Living Pt. II - No One Will Stand In The Way"
INDEX 01 14:52:05
TRACK 06 AUDIO
TITLE "Living Pt. III - Ecstasy"
INDEX 01 18:55:50
TRACK 07 AUDIO
TITLE "Tomorrows Dreams"
INDEX 01 20:58:04
TRACK 08 AUDIO
TITLE "Don't Look Back"
INDEX 01 27:34:61
TRACK 09 AUDIO
TITLE "Lonely Nights"
INDEX 01 34:10:45

_________________


Top
 Profile E-mail  
 
 
PostPosted: 12 Sep 2018 
Хиппей (support team)
User avatar
Joined: 30 Jul 2007
Posts: 108957
Lоcаtion: Киев (Kyiv, UA)
Age: 45
Name: Andrey
Блин, в винил-версии от 1982 года 9 песен. Автор же запроса искал переиздание от 1996 года.

Чяво делаем, ищем дальше?

_________________


Top
 Profile E-mail  
 
 
PostPosted: 12 Sep 2018 
Хиппей (support team)
User avatar
Joined: 30 Jul 2007
Posts: 108957
Lоcаtion: Киев (Kyiv, UA)
Age: 45
Name: Andrey
Точнее, даже не переиздание, а полный альбом, добитый альбомом же полным от 82 года.
Который звучит как затерявшийся пук в старых бабушкиных труселях, откровенно гогоря :foc:
В плане музыки, естественно, а не в качестве саунда.

Древний хард-рок с некими прорывами в хэви зарождающийся. Или даже в NWOBHM.
Но парочка трэков в стиле прог-хард умилила :meloman:

6/10

_________________


Top
 Profile E-mail  
 
Display posts from previous:  Sort by  
Post new topic Reply to topic  [ 16 posts ] 

All times are UTC + 3 hours


Who is online

Users browsing this forum: No registered users and 4 guests


You cannot post new topics in this forum
You cannot reply to topics in this forum
You cannot edit your posts in this forum
You cannot delete your posts in this forum
You cannot post attachments in this forum

Search for:
Яндекс.Метрика
Powered by phpBB © 2000, 2002, 2005, 2007 phpBB Group