\m/ 80's metal \m/

Информационно-аналитический форум "80 см пыли" (In Search We Trust) "У нас никто никуда не спешит"
Me For You - http://me-4u.com
It is currently 16 Feb 2019

All times are UTC + 3 hours

Spoiler
Chat - temporary registration for foreign users (please leave your application here)







Post new topic Reply to topic  [ 60 posts ]  Go to page Previous  1, 2, 3
Author Message
 
PostPosted: 08 Jan 2019 
Работнечег
User avatar
Joined: 28 Aug 2007
Posts: 5710
Lоcаtion: г. Москва
Age: 29
Name: Дима
Millennium - Millennium (1984)(Remastered In 2014)

Image

Line-Up:
Dave Price - Bass
Steve Mennell - Drums
Pete McArdle - Guitars
Mike Muskett - Guitars
Mark Duffy - Vocals


Tracklist:
1. Gang War 03:55
2. A Will to Survive 05:07
3. Magic Mirror 03:20
4. The Devil Rides Out 04:24
5. The Traveller 05:15
6. Steal Your Heart 03:37
7. Demons of the Light 03:19
8. Rock Was Meant for Me 05:02
9. Armageddon 03:33
10. Try to Leave Me 03:03
11. Mutiny 04:43
12. Metal Storm 04:21
13. Kill or Be Killed 04:37
14. Slaughterhouse 04:39
15. Cradle to the Grave 06:15
16. A.I.D.S. 04:16
17. Confession 05:03
18. The Beast Will Command 05:11

Includes the same-titled album and 8 previously unreleased bonus tracks from the '80s and the band's demo tapes.

LOG
Exact Audio Copy V0.99 prebeta 5 from 4. May 2009

EAC extraction logfile from 13. December 2018, 19:17

Millennium / Millennium (Remastered In 2014)

Used drive : PIONEER DVD-RW DVR-221 Adapter: 2 ID: 1

Read mode : Secure
Utilize accurate stream : Yes
Defeat audio cache : Yes
Make use of C2 pointers : No

Read offset correction : 6
Overread into Lead-In and Lead-Out : No
Fill up missing offset samples with silence : Yes
Delete leading and trailing silent blocks : No
Null samples used in CRC calculations : Yes
Used interface : Native Win32 interface for Win NT & 2000

Used output format : User Defined Encoder
Selected bitrate : 32 kBit/s
Quality : High
Add ID3 tag : No
Command line compressor : C:\Program Files\Exact Audio Copy\Flac\flac.exe
Additional command line options : -6 -V %s


TOC of the extracted CD

Track | Start | Length | Start sector | End sector
---------------------------------------------------------
1 | 0:00.00 | 3:55.28 | 0 | 17652
2 | 3:55.28 | 5:07.14 | 17653 | 40691
3 | 9:02.42 | 3:20.35 | 40692 | 55726
4 | 12:23.02 | 4:24.07 | 55727 | 75533
5 | 16:47.09 | 5:15.22 | 75534 | 99180
6 | 22:02.31 | 3:37.03 | 99181 | 115458
7 | 25:39.34 | 3:18.51 | 115459 | 130359
8 | 28:58.10 | 5:01.52 | 130360 | 152986
9 | 33:59.62 | 3:33.18 | 152987 | 168979
10 | 37:33.05 | 3:03.30 | 168980 | 182734
11 | 40:36.35 | 4:43.32 | 182735 | 203991
12 | 45:19.67 | 4:21.00 | 203992 | 223566
13 | 49:40.67 | 4:37.09 | 223567 | 244350
14 | 54:18.01 | 4:38.50 | 244351 | 265250
15 | 58:56.51 | 6:15.02 | 265251 | 293377
16 | 65:11.53 | 4:15.70 | 293378 | 312572
17 | 69:27.48 | 5:02.62 | 312573 | 335284
18 | 74:30.35 | 5:11.16 | 335285 | 358625


Range status and errors

Selected range

Filename D:\Музыка\Lossless\Millennium - Millennium (1984)(Remastered In 2014)\Millennium - Millennium (Remastered In 2014).wav

Peak level 98.2 %
Range quality 100.0 %
Copy CRC 55FEE8BE
Copy OK

No errors occurred


AccurateRip summary

Track 1 cannot be verified as accurate (confidence 1) [DE75DF97], AccurateRip returned [0423B395]
Track 2 cannot be verified as accurate (confidence 1) [0B7590CB], AccurateRip returned [59AF348E]
Track 3 cannot be verified as accurate (confidence 1) [7BF7C333], AccurateRip returned [BE971F66]
Track 4 cannot be verified as accurate (confidence 1) [887C420D], AccurateRip returned [89599086]
Track 5 cannot be verified as accurate (confidence 1) [1CD4793A], AccurateRip returned [9F24B00E]
Track 6 cannot be verified as accurate (confidence 1) [017DF5E2], AccurateRip returned [583A6FF6]
Track 7 cannot be verified as accurate (confidence 1) [F36B49D7], AccurateRip returned [516CB004]
Track 8 cannot be verified as accurate (confidence 1) [06D0603B], AccurateRip returned [7ABD56D1]
Track 9 cannot be verified as accurate (confidence 1) [66D79957], AccurateRip returned [C3BC3FD2]
Track 10 cannot be verified as accurate (confidence 1) [D63CF632], AccurateRip returned [B06D90B4]
Track 11 cannot be verified as accurate (confidence 1) [D3972A7B], AccurateRip returned [1A590DA5]
Track 12 cannot be verified as accurate (confidence 1) [4BD3B667], AccurateRip returned [4FA214D2]
Track 13 cannot be verified as accurate (confidence 1) [D866AC66], AccurateRip returned [336A670B]
Track 14 cannot be verified as accurate (confidence 1) [7CE2FB8B], AccurateRip returned [A28531EF]
Track 15 cannot be verified as accurate (confidence 1) [3702CE0F], AccurateRip returned [15E29D94]
Track 16 cannot be verified as accurate (confidence 1) [75904294], AccurateRip returned [498EC314]
Track 17 cannot be verified as accurate (confidence 1) [51AD398F], AccurateRip returned [6BE1DBDD]
Track 18 cannot be verified as accurate (confidence 1) [32336DB9], AccurateRip returned [C47B4A5B]

No tracks could be verified as accurate
You may have a different pressing from the one(s) in the database

End of status report


CUE
REM GENRE NWOBHM
REM DATE 1984
REM DISCID F012AD12
REM COMMENT "ExactAudioCopy v0.99pb5"
PERFORMER "Millennium"
TITLE "Millennium (Remastered In 2014)"
FILE "Millennium - Millennium (Remastered In 2014).flac" WAVE
TRACK 01 AUDIO
TITLE "Gang War"
PERFORMER "Millennium"
INDEX 01 00:00:00
TRACK 02 AUDIO
TITLE "A Will To Survive"
PERFORMER "Millennium"
INDEX 01 03:55:28
TRACK 03 AUDIO
TITLE "Magic Mirror"
PERFORMER "Millennium"
INDEX 01 09:02:42
TRACK 04 AUDIO
TITLE "The Devil Rides Out"
PERFORMER "Millennium"
INDEX 01 12:23:02
TRACK 05 AUDIO
TITLE "The Traveller "
PERFORMER "Millennium"
INDEX 01 16:47:09
TRACK 06 AUDIO
TITLE "Steal Your Heart"
PERFORMER "Millennium"
INDEX 01 22:02:31
TRACK 07 AUDIO
TITLE "Demons of the Light"
PERFORMER "Millennium"
INDEX 01 25:39:34
TRACK 08 AUDIO
TITLE "Rock Was Meant For Me "
PERFORMER "Millennium"
INDEX 01 28:58:10
TRACK 09 AUDIO
TITLE "Armageddon"
PERFORMER "Millennium"
INDEX 01 33:59:62
TRACK 10 AUDIO
TITLE "Try To Leave Me"
PERFORMER "Millennium"
INDEX 01 37:33:05
TRACK 11 AUDIO
TITLE "Mutiny (Bonus)"
PERFORMER "Millennium"
INDEX 01 40:36:35
TRACK 12 AUDIO
TITLE "Metal Storm (Bonus)"
PERFORMER "Millennium"
INDEX 01 45:19:67
TRACK 13 AUDIO
TITLE "Kill Or Be Killed (Bonus)"
PERFORMER "Millennium"
INDEX 01 49:40:67
TRACK 14 AUDIO
TITLE "Slaughterhouse (Bonus)"
PERFORMER "Millennium"
INDEX 01 54:18:01
TRACK 15 AUDIO
TITLE "Cradle To The Grave (Bonus)"
PERFORMER "Millennium"
INDEX 01 58:56:51
TRACK 16 AUDIO
TITLE "A.I.D.S (Bonus)"
PERFORMER "Millennium"
INDEX 01 65:11:53
TRACK 17 AUDIO
TITLE "Confession (Bonus)"
PERFORMER "Millennium"
INDEX 01 69:27:48
TRACK 18 AUDIO
TITLE "The Beast Will Command (Bonus)"
PERFORMER "Millennium"
INDEX 01 74:30:35


Yadi

Как говорится, обещанного полгода ждут)) НЕ такой уж плохой и звук как по мне, да громкость задрана, но альбом звучит нормально. На демках звук поглуше конечно, но тоже удобоваримый. Вообщем может кому и пригодится. Музыкально понравились отдельные песни, но в целом альбом на крепкую 4ку, без особых хитов. В качестве бонусов добавили демку Metal Era, почему-то без песни Keep It Metal и демку Demo 1987.


Top
 Profile E-mail  
 
 
PostPosted: 08 Jan 2019 
Хиппей (support team)
User avatar
Joined: 30 Jul 2007
Posts: 110281
Lоcаtion: Киев (Kyiv, UA)
Age: 45
Name: Andrey
Ой, красота какая, Дим, спасибо :thanx:

mirror: Uloz l Drop l Narod l M-Cloud

_________________


Top
 Profile E-mail  
 
 
PostPosted: 08 Jan 2019 
Хиппей (support team)
User avatar
Joined: 30 Jul 2007
Posts: 110281
Lоcаtion: Киев (Kyiv, UA)
Age: 45
Name: Andrey
church wrote:
Вообщем может кому и пригодится. Музыкально понравились отдельные песни, но в целом альбом на крепкую 4ку, без особых хитов. В качестве бонусов добавили демку Metal Era, почему-то без песни Keep It Metal и демку Demo 1987.

Ой, со всем согласен, звук фуфло, но для 84 года норм.
А вот что меня порвало в этом сборнике, так это две ниже песни :lob: :lob:

Если они примерно тоже от 84 года. то я реально охреневаю, как группа резко поменяла свою унылую музыку на почти..
Ща, ща, скоро послушаем виде "клипов".

_________________


Top
 Profile E-mail  
 
 
PostPosted: 08 Jan 2019 
Хиппей (support team)
User avatar
Joined: 30 Jul 2007
Posts: 110281
Lоcаtion: Киев (Kyiv, UA)
Age: 45
Name: Andrey
Эх, нету этих песен на ,тубе.
Серёге splatty явно понравились бы.
Сейчас освобожу место и залью хоть одну на Ютуб.
Ну и явно крайние альбомы группы нужно будет качнуть. Так охренезный музон, судя вот, даже по этой песенке :shok:


MILLENNIUM - Awakening (Lyric Video)


_________________


Top
 Profile E-mail  
 
 
PostPosted: 08 Jan 2019 
Хиппей (support team)
User avatar
Joined: 30 Jul 2007
Posts: 110281
Lоcаtion: Киев (Kyiv, UA)
Age: 45
Name: Andrey
Scatterbrain wrote:
Если они примерно тоже от 84 года. то я реально охреневаю, как группа резко поменяла свою унылую музыку на почти..
Ща, ща, скоро послушаем виде "клипов".

Песни оказалось, взяты из демки 1987 года и группа таки там играет трэш :meloman:

_________________


Top
 Profile E-mail  
 
 
PostPosted: 08 Jan 2019 
Хиппей (support team)
User avatar
Joined: 30 Jul 2007
Posts: 110281
Lоcаtion: Киев (Kyiv, UA)
Age: 45
Name: Andrey
Ну и группа активничает :lob:

Image

_________________


Top
 Profile E-mail  
 
 
PostPosted: 08 Jan 2019 
Хиппей (support team)
User avatar
Joined: 30 Jul 2007
Posts: 110281
Lоcаtion: Киев (Kyiv, UA)
Age: 45
Name: Andrey
Millennium - Confessor



Вот чем не Overkill? :lloo:

_________________


Top
 Profile E-mail  
 
 
PostPosted: 08 Jan 2019 
Хиппей (support team)
User avatar
Joined: 30 Jul 2007
Posts: 110281
Lоcаtion: Киев (Kyiv, UA)
Age: 45
Name: Andrey
16-й год тоже не помешает и нам здесь :arrow: https://rutracker.org/forum/viewtopic.php?t=5560971

Качну щас. Это типа тоже сборка старый песен.

_________________


Top
 Profile E-mail  
 
 
PostPosted: 08 Jan 2019 
Хиппей (support team)
User avatar
Joined: 30 Jul 2007
Posts: 110281
Lоcаtion: Киев (Kyiv, UA)
Age: 45
Name: Andrey
17-й на Яндыксе есть :arrow: https://music.yandex.ru/album/4768671
Начал слушать.

_________________


Top
 Profile E-mail  
 
 
PostPosted: 08 Jan 2019 
Хиппей (support team)
User avatar
Joined: 30 Jul 2007
Posts: 110281
Lоcаtion: Киев (Kyiv, UA)
Age: 45
Name: Andrey
А вот он и в лосике имеется, качаю :arrow: http://torrents45.xyz/torrent/1214572/

_________________


Top
 Profile E-mail  
 
 
PostPosted: 08 Jan 2019 
Хиппей (support team)
User avatar
Joined: 30 Jul 2007
Posts: 110281
Lоcаtion: Киев (Kyiv, UA)
Age: 45
Name: Andrey
Millennium - 2017 - Awakening (Japanese Edition 2018) [flac]

Image Image

mirror: Uloz l Drop l Narod l M-Cloud

Ну... начал случшать. Трэшем если и пахнет, то где-то между подмышками. А так в основном пауэр :pardon:

Image Image Image

Image Image Image Image Image Image

Image Image Image Image Image

log
Exact Audio Copy V1.3 from 2. September 2016

EAC extraction logfile from 20. March 2018, 13:58

Millennium / Awakening (Japan)

Used drive : ATAPI iHAS122 W Adapter: 2 ID: 0

Read mode : Secure
Utilize accurate stream : Yes
Defeat audio cache : Yes
Make use of C2 pointers : No

Read offset correction : 48
Overread into Lead-In and Lead-Out : No
Fill up missing offset samples with silence : Yes
Delete leading and trailing silent blocks : No
Null samples used in CRC calculations : Yes
Used interface : Installed external ASPI interface

Used output format : User Defined Encoder
Selected bitrate : 1024 kBit/s
Quality : High
Add ID3 tag : No
Command line compressor : C:\Program Files\FLAC\flac.exe
Additional command line options : -V -8 -T "Date=%year%" -T "Genre=%genre%" -T"COMMENT=Ripped by Ilijan [MeTaLMaDNeSS.TeaM]" -8 -V %source%


TOC of the extracted CD

Track | Start | Length | Start sector | End sector
---------------------------------------------------------
1 | 0:00.00 | 4:39.60 | 0 | 20984
2 | 4:39.60 | 3:53.67 | 20985 | 38526
3 | 8:33.52 | 5:32.56 | 38527 | 63482
4 | 14:06.33 | 0:45.46 | 63483 | 66903
5 | 14:52.04 | 5:22.10 | 66904 | 91063
6 | 20:14.14 | 3:59.27 | 91064 | 109015
7 | 24:13.41 | 5:18.11 | 109016 | 132876
8 | 29:31.52 | 4:49.04 | 132877 | 154555
9 | 34:20.56 | 4:52.50 | 154556 | 176505
10 | 39:13.31 | 3:40.13 | 176506 | 193018
11 | 42:53.44 | 4:49.41 | 193019 | 214734
12 | 47:43.10 | 5:28.23 | 214735 | 239357
13 | 53:11.33 | 3:50.35 | 239358 | 256642
14 | 57:01.68 | 4:11.71 | 256643 | 275538


Range status and errors

Selected range

Filename D:\Vknish + Devastator + ungern666 = Swolo4 (Download, Upload On Rutracker, DIE!!!)\Millennium - Awakening (Japan).wav

Peak level 99.2 %
Extraction speed 4.2 X
Range quality 100.0 %
Test CRC AE7CEB77
Copy CRC AE7CEB77
Copy OK

No errors occurred


AccurateRip summary

Track 1 not present in database
Track 2 not present in database
Track 3 not present in database
Track 4 not present in database
Track 5 not present in database
Track 6 not present in database
Track 7 not present in database
Track 8 not present in database
Track 9 not present in database
Track 10 not present in database
Track 11 not present in database
Track 12 not present in database
Track 13 not present in database
Track 14 not present in database

None of the tracks are present in the AccurateRip database

End of status report

---- CUETools DB Plugin V2.1.6

[CTDB TOCID: EYbIZQZVVBMuyw.mDNGFyGUlBaM-] disk not present in database
Submit result: EYbIZQZVVBMuyw.mDNGFyGUlBaM- has been uploaded


==== Log checksum 30E3BECC53A06333F32CF7CA72322AC124D9BB5BD4B661F6C409527A550F4E90 ====

cue
REM GENRE "Heavy Metal"
REM DATE 2018
REM DISCID C90E590E
REM COMMENT "ExactAudioCopy v1.3"
PERFORMER "Millennium"
TITLE "Awakening (Japan)"
FILE "Millennium - Awakening (Japan).flac" WAVE
TRACK 01 AUDIO
TITLE "False Reality"
PERFORMER "Millennium"
INDEX 01 00:00:00
TRACK 02 AUDIO
TITLE "Rise Above"
PERFORMER "Millennium"
INDEX 00 04:37:60
INDEX 01 04:39:60
TRACK 03 AUDIO
TITLE "Searching"
PERFORMER "Millennium"
INDEX 00 08:31:52
INDEX 01 08:33:52
TRACK 04 AUDIO
TITLE "The Spell"
PERFORMER "Millennium"
INDEX 00 14:04:33
INDEX 01 14:06:33
TRACK 05 AUDIO
TITLE "Awakening"
PERFORMER "Millennium"
INDEX 00 14:50:04
INDEX 01 14:52:04
TRACK 06 AUDIO
TITLE "Lies All Lies"
PERFORMER "Millennium"
INDEX 00 20:12:14
INDEX 01 20:14:14
TRACK 07 AUDIO
TITLE "The Calling"
PERFORMER "Millennium"
INDEX 00 24:11:41
INDEX 01 24:13:41
TRACK 08 AUDIO
TITLE "Witch Hunt"
PERFORMER "Millennium"
INDEX 00 29:29:52
INDEX 01 29:31:52
TRACK 09 AUDIO
TITLE "When Mad Men Rule"
PERFORMER "Millennium"
INDEX 00 34:18:56
INDEX 01 34:20:56
TRACK 10 AUDIO
TITLE "Revolution Calls"
PERFORMER "Millennium"
INDEX 00 39:11:31
INDEX 01 39:13:31
TRACK 11 AUDIO
TITLE "Possessed"
PERFORMER "Millennium"
INDEX 00 42:51:44
INDEX 01 42:53:44
TRACK 12 AUDIO
TITLE "Caught In A Warzone (Bonus Track)"
PERFORMER "Millennium"
INDEX 00 47:41:10
INDEX 01 47:43:10
TRACK 13 AUDIO
TITLE "The Devil Rides Out (Bonus Track)"
PERFORMER "Millennium"
INDEX 00 53:09:33
INDEX 01 53:11:33
TRACK 14 AUDIO
TITLE "We Don't Trust You (Bonus Track)"
PERFORMER "Millennium"
INDEX 00 56:59:68
INDEX 01 57:01:68

_________________


Top
 Profile E-mail  
 
 
PostPosted: 08 Jan 2019 
Анатолий
User avatar
Joined: 18 Oct 2008
Posts: 3343
Lоcаtion: Армавир
Age: 41
Name: Анатолий
Спасибо, Дмитрий за классный подгон! Группу знаю ещё со времён энциклопедии О. Бочарова, там о ней вскользь упоминалось ну и я конечно же это название записал в тетрадку и вот спустя .... времени благодаря тебе имею возможность послушать музыкальный материал от этих ребят.

Scatterbrain wrote:
MILLENNIUM - Awakening (Lyric Video)


Не плохо, весьма не плохо!

Scatterbrain wrote:
Вот чем не Overkill?


Да, действительно вступление напоминает Overkill времён "Under the Influence", но далее всё последовало в типично аглицом духе, только англичане так исполняют Thrash.


Top
 Profile E-mail  
 
 
PostPosted: 08 Jan 2019 
Хиппей (support team)
User avatar
Joined: 30 Jul 2007
Posts: 110281
Lоcаtion: Киев (Kyiv, UA)
Age: 45
Name: Andrey
Privateer wrote:
Не плохо, весьма не плохо!

К сожалению, кроме этой песни и демки от 87 года у группа ничего не получилось :(

_________________


Top
 Profile E-mail  
 
 
PostPosted: 08 Jan 2019 
Хиппей (support team)
User avatar
Joined: 30 Jul 2007
Posts: 110281
Lоcаtion: Киев (Kyiv, UA)
Age: 45
Name: Andrey
Privateer wrote:
но далее всё последовало в типично аглицом духе, только англичане так исполняют Thrash.

Да, потому я хотел тебе намекнуть, что вот оно, твоя тема, но ты сам сразу опа, как грибок вылез :ok:

_________________


Top
 Profile E-mail  
 
 
PostPosted: 08 Jan 2019 
Анатолий
User avatar
Joined: 18 Oct 2008
Posts: 3343
Lоcаtion: Армавир
Age: 41
Name: Анатолий
Scatterbrain wrote:
Да, потому я хотел тебе намекнуть, что вот оно, твоя тема, но ты сам сразу опа, как грибок вылез


Ногтевой что ли? :oops: :crazy:


Top
 Profile E-mail  
 
 
PostPosted: 08 Jan 2019 
Хиппей (support team)
User avatar
Joined: 30 Jul 2007
Posts: 110281
Lоcаtion: Киев (Kyiv, UA)
Age: 45
Name: Andrey
Чайный :slo:

_________________


Top
 Profile E-mail  
 
 
PostPosted: 08 Jan 2019 
Хиппей (support team)
User avatar
Joined: 30 Jul 2007
Posts: 110281
Lоcаtion: Киев (Kyiv, UA)
Age: 45
Name: Andrey
Scatterbrain wrote:
Millennium - 2017 - Awakening

Ну так себе, средненько... :pardon:

6+/10

_________________


Top
 Profile E-mail  
 
 
PostPosted: 10 Jan 2019 
Я набрал 1000 сообщений!
User avatar
Joined: 04 Jul 2009
Posts: 1185
Age: 45
Name: dima
Millennium - Discography (1984-2018)


Top
 Profile E-mail  
 
 
PostPosted: 10 Jan 2019 
Хиппей (support team)
User avatar
Joined: 30 Jul 2007
Posts: 110281
Lоcаtion: Киев (Kyiv, UA)
Age: 45
Name: Andrey
:thanx:

_________________


Top
 Profile E-mail  
 
 
PostPosted: 10 Jan 2019 
Хиппей (support team)
User avatar
Joined: 30 Jul 2007
Posts: 110281
Lоcаtion: Киев (Kyiv, UA)
Age: 45
Name: Andrey
Millennium - 1985 - Caught in a Warzone (No Remorse Records, 0744430521406, Greece, 2016) [flac]

Image Image Image

Image Image Image

mirror: Uloz l Drop l Narod l M-Cloud

Тоже так себе, хотя и есть несколько занятных и достойных даже композиций. Но в целом сборка (насколько понял, это восстановленные старые песни), звучит так же средненько.
Традиционалный хэви здесь ещё, без тени пауэра.

Но Анатолику понравится.

6+/10

Image Image Image

log
Exact Audio Copy V1.3 from 2. September 2016

EAC extraction logfile from 12. May 2018, 19:35

Millennium / Caught in a Warzone

Used drive : PLEXTOR DVDR PX-L890SA Adapter: 1 ID: 0

Read mode : Secure
Utilize accurate stream : Yes
Defeat audio cache : Yes
Make use of C2 pointers : No

Read offset correction : 6
Overread into Lead-In and Lead-Out : No
Fill up missing offset samples with silence : Yes
Delete leading and trailing silent blocks : No
Null samples used in CRC calculations : Yes
Used interface : Native Win32 interface for Win NT & 2000

Used output format : User Defined Encoder
Selected bitrate : 896 kBit/s
Quality : High
Add ID3 tag : No
Command line compressor : C:\Program Files (x86)\Exact Audio Copy\FLAC\flac.exe
Additional command line options : -6 -V -T "ARTIST=%artist%" -T "TITLE=%title%" -T "ALBUM=%albumtitle%" -T "DATE=%year%" -T "TRACKNUMBER=%tracknr%" -T "GENRE=%genre%" -T "COMMENT=%comment%" -T "BAND=%albuminterpret%" -T "ALBUMARTIST=%albuminterpret%" -T "COMPOSER=%composer%" %haslyrics%--tag-from-file=LYRICS="%lyricsfile%"%haslyrics% -T "DISCNUMBER=%cdnumber%" -T "TOTALDISCS=%totalcds%" -T "TOTALTRACKS=%numtracks%" %hascover%--picture="%coverfile%"%hascover% %source% -o %dest%


TOC of the extracted CD

Track | Start | Length | Start sector | End sector
---------------------------------------------------------
1 | 0:00.00 | 4:19.14 | 0 | 19438
2 | 4:19.14 | 4:07.10 | 19439 | 37973
3 | 8:26.24 | 4:20.05 | 37974 | 57478
4 | 12:46.29 | 4:06.60 | 57479 | 75988
5 | 16:53.14 | 3:31.05 | 75989 | 91818
6 | 20:24.19 | 3:31.11 | 91819 | 107654
7 | 23:55.30 | 4:04.35 | 107655 | 125989
8 | 27:59.65 | 3:43.22 | 125990 | 142736
9 | 31:43.12 | 3:56.64 | 142737 | 160500
10 | 35:40.01 | 4:24.24 | 160501 | 180324
11 | 40:04.25 | 3:31.60 | 180325 | 196209
12 | 43:36.10 | 3:06.56 | 196210 | 210215


Range status and errors

Selected range

Filename C:\Torrents\Millennium - 2016 - Caught in a Warzone (No Remorse Records, 0744430521406, Greece, 2016)\Millennium - Caught in a Warzone.wav

Peak level 97.7 %
Extraction speed 5.9 X
Range quality 100.0 %
Test CRC 4C28581B
Copy CRC 4C28581B
Copy OK

No errors occurred


AccurateRip summary

Track 1 not present in database
Track 2 not present in database
Track 3 not present in database
Track 4 not present in database
Track 5 not present in database
Track 6 not present in database
Track 7 not present in database
Track 8 not present in database
Track 9 not present in database
Track 10 not present in database
Track 11 not present in database
Track 12 not present in database

None of the tracks are present in the AccurateRip database

End of status report

==== Log checksum D88CDB5DF7D4684832A93985D9F36F31ABF6FE09DE418F560FB16AFEE9A304E0 ====

cue
REM GENRE "Heavy Metal"
REM DATE 2016
REM DISCID 930AF20C
REM COMMENT "ExactAudioCopy v1.3"
PERFORMER "Millennium"
TITLE "Caught in a Warzone"
REM COMPOSER ""
FILE "Millennium - Caught in a Warzone.flac" WAVE
TRACK 01 AUDIO
TITLE "Princess of the Light"
PERFORMER "Millennium"
REM COMPOSER ""
INDEX 01 00:00:00
TRACK 02 AUDIO
TITLE "Caught in a Warzone"
PERFORMER "Millennium"
REM COMPOSER ""
INDEX 01 04:19:14
TRACK 03 AUDIO
TITLE "The Dance of the Dragonfly"
PERFORMER "Millennium"
REM COMPOSER ""
INDEX 01 08:26:24
TRACK 04 AUDIO
TITLE "Gambling Fever"
PERFORMER "Millennium"
REM COMPOSER ""
INDEX 01 12:46:29
TRACK 05 AUDIO
TITLE "Run to the West"
PERFORMER "Millennium"
REM COMPOSER ""
INDEX 01 16:53:14
TRACK 06 AUDIO
TITLE "Holy Knight"
PERFORMER "Millennium"
REM COMPOSER ""
INDEX 01 20:24:19
TRACK 07 AUDIO
TITLE "We Don't Trust You"
PERFORMER "Millennium"
REM COMPOSER ""
INDEX 01 23:55:30
TRACK 08 AUDIO
TITLE "Cry Wolf"
PERFORMER "Millennium"
REM COMPOSER ""
INDEX 01 27:59:65
TRACK 09 AUDIO
TITLE "When Midnight Falls"
PERFORMER "Millennium"
REM COMPOSER ""
INDEX 01 31:43:12
TRACK 10 AUDIO
TITLE "Keep On Metal"
PERFORMER "Millennium"
REM COMPOSER ""
INDEX 01 35:40:01
TRACK 11 AUDIO
TITLE "Don't Look Back"
PERFORMER "Millennium"
REM COMPOSER ""
INDEX 01 40:04:25
TRACK 12 AUDIO
TITLE "Rock Clichй"
PERFORMER "Millennium"
REM COMPOSER ""
INDEX 01 43:36:10

_________________


Top
 Profile E-mail  
 
Display posts from previous:  Sort by  
Post new topic Reply to topic  [ 60 posts ]  Go to page Previous  1, 2, 3

All times are UTC + 3 hours


Who is online

Users browsing this forum: No registered users and 3 guests


You cannot post new topics in this forum
You cannot reply to topics in this forum
You cannot edit your posts in this forum
You cannot delete your posts in this forum
You cannot post attachments in this forum

Search for:
Яндекс.Метрика
Powered by phpBB © 2000, 2002, 2005, 2007 phpBB Group