\m/ 80's metal \m/

Информационно-аналитический форум "80 см пыли" (In Search We Trust) "У нас никто никуда не спешит"
Me For You - http://me-4u.com
It is currently 16 Nov 2018

All times are UTC + 3 hours

Spoiler
Chat - temporary registration for foreign users (please leave your application here)







Post new topic Reply to topic  [ 1 post ] 
Author Message
 
PostPosted: 05 Feb 2010 
Old Time Rock`n`Roll
User avatar
Joined: 23 Jun 2008
Posts: 3363
Lоcаtion: г.Ульяновск
Age: 40
Name: Константин
Mitch Malloy – Mitch Malloy (1992)

Image

Year: 1992
Style: AOR, Melodic Hard Rock
Country: USA
Format: FLAC + log + cue + booklet & mp3-320
Size: 319 Mb + 306 Mb

Tracklist
01. Anything At All (4:00)
02. Mission Of Love (3:40)
03. Nobody Wins This War (4:15)
04. Over The Water (4:38)
05. Problem Child (4:20)
06. Stranded In The Middle Of Nowhere (3:50)
07. Music Box (0:20)
08. Cowboy And The Ballerina (3:53)
09. Our Love Will Never Die (5:00)
10. Forever (4:28)
11. Mirror, Mirror (4:40)

TPT – 43:21

Line-Up
Hugh McDonald - Bass
Jeffrey Vanston - Keyboards
Kevin Dukes - Guitars
Michael Thompson - Guitars
Mickey Curry - Drums
Mitch Malloy - Vocals, Guitars

Album Credits:
Producer: Arthur Payson
Assistant Engineer: Gregg Grill, Lawrence Ethan, Mark Hagen
Mixing: Arthur Payson

Additional Players:
Tommy Funderburk - Backing Vocals

Charting Singles:
Anything At All - USA # 49
Nobody Wins In This War - USA # 66

Log
EAC extraction logfile from 20. September 2009, 11:52 for CD
Mitch Malloy / Mitch Malloy

Used drive : HL-DT-STDVD-ROM GDR8164B Adapter: 4 ID: 1
Read mode : Secure with NO C2, accurate stream, disable cache
Read offset correction : 102
Overread into Lead-In and Lead-Out : No

Used output format : C:\Archivos de programa\eac\wavpack.exe (User Defined Encoder)
128 kBit/s
Additional command line options : -hm -w "Cuesheet=@*.cue" -w "Artist=%a" -w "Album=%g" -w "Year=%y" -w "Genre=%m" %s %d

Other options :
Fill up missing offset samples with silence : Yes
Delete leading and trailing silent blocks : No
Installed external ASPI interface


Range status and errors
Selected range
Filename C:\Documents and Settings\Administrador\Escritorio\CDImage.wv.wav

Peak level 100.0 %
Range quality 99.9 %
CRC E49901E3
Copy OK

No errors occured

End of status report


Cue
CATALOG 0000000000000
PERFORMER "Mitch Malloy"
TITLE "Mitch Malloy"
FILE "CDImage.Wav" WAVE
TRACK 01 AUDIO
TITLE "Anything At All"
PERFORMER "Mitch Malloy"
INDEX 01 00:00:00
TRACK 02 AUDIO
TITLE "Mission Of Love"
PERFORMER "Mitch Malloy"
INDEX 01 04:01:55
TRACK 03 AUDIO
TITLE "Nobody Wins In This War"
PERFORMER "Mitch Malloy"
INDEX 01 07:40:70
TRACK 04 AUDIO
TITLE "Take Me Over The Water"
PERFORMER "Mitch Malloy"
INDEX 01 11:53:70
TRACK 05 AUDIO
TITLE "Problem Child"
PERFORMER "Mitch Malloy"
INDEX 01 16:29:62
TRACK 06 AUDIO
TITLE "Stranded In The Middle Of Nowhere"
PERFORMER "Mitch Malloy"
INDEX 01 20:48:27
TRACK 07 AUDIO
TITLE "Music Box"
PERFORMER "Mitch Malloy"
INDEX 00 24:38:00
INDEX 01 24:38:45
TRACK 08 AUDIO
TITLE "Cowboy And The Ballerina"
PERFORMER "Mitch Malloy"
INDEX 01 24:59:72
TRACK 09 AUDIO
TITLE "Our Love Will Never Die"
PERFORMER "Mitch Malloy"
INDEX 01 29:13:22
TRACK 10 AUDIO
TITLE "Forever"
PERFORMER "Mitch Malloy"
INDEX 00 34:11:17
INDEX 01 34:11:57
TRACK 11 AUDIO
TITLE "Mirror Mirror"
PERFORMER "Mitch Malloy"
INDEX 00 38:39:27
INDEX 01 38:39:65


FLAC
narod-APE

mp3-320
megaupload-320

Дебютный альбом Митча Маллоя, между прочим сына федерального судьи . Так сказать АОР в законе)) Из числа участников записи Хью Макдональд записывался с Литой Форд, Шер, Элисом Купером, Робин Бэк,сейчас басист Bon Jovi, а барабанщик Микки Карри был соратником Брайана Адамса. Спродюссировал альбом сэр Артур Пэйсон, в основном известный как Десмонд Чайлд.
Релиз с WWR, автор рипа – Kiquerocks.
Часть сканов изначально была с какими-то желтыми пятнами, наверное сканер барахлил у товарища Кикерокса. Часть картинок я нашел в сети и добавил в архив, но полностью все продублировать не удалось.

Image


Top
 Profile  
 
Display posts from previous:  Sort by  
Post new topic Reply to topic  [ 1 post ] 

All times are UTC + 3 hours


Who is online

Users browsing this forum: No registered users and 1 guest


You cannot post new topics in this forum
You cannot reply to topics in this forum
You cannot edit your posts in this forum
You cannot delete your posts in this forum
You cannot post attachments in this forum

Search for:
Яндекс.Метрика
Powered by phpBB © 2000, 2002, 2005, 2007 phpBB Group