\m/ 80's metal \m/

Информационно-аналитический форум "80 см пыли" (In Search We Trust) "У нас никто никуда не спешит"
Me For You - http://me-4u.com
It is currently 20 Sep 2018

All times are UTC + 3 hours

Spoiler
Chat - temporary registration for foreign users (please leave your application here)







Post new topic Reply to topic  [ 1 post ] 
Author Message
 
PostPosted: 23 Jan 2010 
Анатолий
User avatar
Joined: 18 Oct 2008
Posts: 3115
Lоcаtion: Армавир
Age: 41
Name: Анатолий
Magnum - "Rock Art" - 1994

Image

1) We all Need to Be Loved 5:05
2) Hard Hearted Woman 3:49
3) Back in Your Arms 5:59
4) Rock Heavy 3:58
5) Tall Ships 5:06
6) Tell Tale Eyes 4:52
7) Love's a Stranger 5:11
8) Hush-a-Bye Baby 4:48
9) Just This Side of Heaven 4:20
10) I Will Decide Myself 4:15
11) On Christmas Day 7:10

cue
REM GENRE Rock
REM DATE 1994
REM DISCID 850CE30B
REM COMMENT "ExactAudioCopy v0.99pb4"
PERFORMER "Magnum"
TITLE "Rock Art"
FILE "Magnum - Rock Art.wav" WAVE
TRACK 01 AUDIO
TITLE "We All Need To Be Loved"
PERFORMER "Magnum"
INDEX 01 00:00:00
TRACK 02 AUDIO
TITLE "Hard Hearted Woman"
PERFORMER "Magnum"
INDEX 01 05:00:02
TRACK 03 AUDIO
TITLE "Back In Your Arms Again"
PERFORMER "Magnum"
INDEX 01 08:50:30
TRACK 04 AUDIO
TITLE "Rock Heavy"
PERFORMER "Magnum"
INDEX 01 14:49:55
TRACK 05 AUDIO
TITLE "The Tall Ships"
PERFORMER "Magnum"
INDEX 01 18:50:02
TRACK 06 AUDIO
TITLE "Tell Tale Eyes"
PERFORMER "Magnum"
INDEX 01 24:03:47
TRACK 07 AUDIO
TITLE "Love's A Stranger"
PERFORMER "Magnum"
INDEX 01 28:57:72
TRACK 08 AUDIO
TITLE "Hush-A-Bye Baby"
PERFORMER "Magnum"
INDEX 01 34:13:50
TRACK 09 AUDIO
TITLE "Just This Side Of Heaven"
PERFORMER "Magnum"
INDEX 01 39:05:62
TRACK 10 AUDIO
TITLE "I Will Decide Myself"
PERFORMER "Magnum"
INDEX 01 43:30:70
TRACK 11 AUDIO
TITLE "On Christmas Day"
PERFORMER "Magnum"
INDEX 00 47:48:57
INDEX 01 47:49:42


log
Exact Audio Copy V0.99 prebeta 4 from 23. January 2008

Отчёт EAC об извлечении, выполненном 23. апреля 2008, 20:18

Magnum / Rock Art

Дисковод: ASUS DRW-1814BLT Adapter: 1 ID: 0

Режим чтения : Достоверность
Использование точного потока : Да
Отключение кэша аудио : Да
Использование указателей C2 : Нет

Коррекция смещения при чтении : 6
Способность читать области Lead-in и Lead-out : Да
Заполнение пропущенных сэмплов тишиной : Да
Удаление блоков с тишиной в начале и конце : Нет
При вычислениях CRC использовались нулевые сэмплы : Да
Интерфейс : Установленный внешний ASPI-интерфейс

Выходной формат : Monkey's Audio (без потерь)
Выбранный битрейт : Fast Lossless Compression
Качество : Высокий
Добавление ID3-тэга : Да
Утилита сжатия : C:\Program Files\Monkey's Audio\MAC.exe
Дополнительные параметры : %d -t "Artist=%a" -t "Title=%t" -t "Album=%g" -t "Year=%y" -t "Track=%n" -t "Genre=%m" "C:\Program Files\Monkey's Audio\MAC.exe" %s %d -c3000.


TOC извлечённого CD

Трек | Старт | Длительность | Начальный сектор | Конечный сектор
---------------------------------------------------------------------
1 | 0:00.00 | 5:00.02 | 0 | 22501
2 | 5:00.02 | 3:50.28 | 22502 | 39779
3 | 8:50.30 | 5:59.25 | 39780 | 66729
4 | 14:49.55 | 4:00.22 | 66730 | 84751
5 | 18:50.02 | 5:13.45 | 84752 | 108271
6 | 24:03.47 | 4:54.25 | 108272 | 130346
7 | 28:57.72 | 5:15.53 | 130347 | 154024
8 | 34:13.50 | 4:52.12 | 154025 | 175936
9 | 39:05.62 | 4:25.08 | 175937 | 195819
10 | 43:30.70 | 4:18.47 | 195820 | 215216
11 | 47:49.42 | 7:10.15 | 215217 | 247481


Характеристики диапазона извлечения и сообщения об ошибках

Выбранный диапазон

Имя файла G:\ЗАКАЗ\Magnum - Rock Art 1994\Magnum - Rock Art.wav

Пиковый уровень 100.0 %
Качество диапазона 100.0 %
CRC копии F9196D7B
Копирование... OK

Ошибок не произошло

Конец отчёта


http://ifolder.ru/15980287
http://ifolder.ru/15999058
http://ifolder.ru/16000143
http://ifolder.ru/16017186

За лося спасибо Gorgar'у!


Top
 Profile E-mail  
 
Display posts from previous:  Sort by  
Post new topic Reply to topic  [ 1 post ] 

All times are UTC + 3 hours


Who is online

Users browsing this forum: No registered users and 3 guests


You cannot post new topics in this forum
You cannot reply to topics in this forum
You cannot edit your posts in this forum
You cannot delete your posts in this forum
You cannot post attachments in this forum

Search for:
Яндекс.Метрика
Powered by phpBB © 2000, 2002, 2005, 2007 phpBB Group