\m/ 80's metal \m/

Информационно-аналитический форум "80 см пыли" (In Search We Trust) "У нас никто никуда не спешит"
Me For You - http://me-4u.com
It is currently 19 Nov 2018

All times are UTC + 3 hours

Spoiler
Chat - temporary registration for foreign users (please leave your application here)







Post new topic Reply to topic  [ 38 posts ]  Go to page Previous  1, 2
Author Message
 
PostPosted: 25 Jun 2012 
адын фелософъ прокметолу
User avatar
Joined: 22 Oct 2009
Posts: 2709
Lоcаtion: Сочи
Age: 41
Name: Сергей
обложки к диску
http://narod.ru/disk/54090562001.3ea684e939874bd4a86ca2d7fa4c1cfb/Moriah%20Cover.rar.html

_________________
А теперь ... клоунов и стриптизёрш!


Top
 Profile E-mail  
 
 
PostPosted: 25 Jun 2012 
хард н хэвщик (support team)
User avatar
Joined: 02 Jun 2008
Posts: 16880
Lоcаtion: Н.Новгород
Age: 31
Name: Артем
wizard12 wrote:
а покупал я диск у маленьких электронных гномов, которые запускают цифровой пакет в межсети, стреляя через кабель, кувыркаясь через трубы...

Серег, ты чо какой крепкий шалфей курил :benya:


Top
 Profile  
 
 
PostPosted: 27 Jun 2012 
Хиппей (support team)
User avatar
Joined: 30 Jul 2007
Posts: 108153
Lоcаtion: Киев (Kyiv, UA)
Age: 45
Name: Andrey
:thanx:

mirror: MultiUp l Narod

_________________


Top
 Profile E-mail  
 
 
PostPosted: 30 Jun 2012 
Хиппей (support team)
User avatar
Joined: 30 Jul 2007
Posts: 108153
Lоcаtion: Киев (Kyiv, UA)
Age: 45
Name: Andrey
Странноватый альбом - три трэка студийных, остальное живые песни, исполненные в студии акустически, или интервью и прочая фигня.
В общем, труъ фэнс онли :pardon:
Но - качество записи отменное :dance:

_________________


Top
 Profile E-mail  
 
 
PostPosted: 16 Aug 2012 
5cm
User avatar
Joined: 30 Apr 2010
Posts: 60
Lоcаtion: Athens
Name: Aggelos
Image

TRACKLIST:

Image

Band : Moriah
Country : USA
Release : Fallen Fortress
Year : 2010
Genre : Heavy Metal
File Info : mp3 320
Download : GameFront

Info:

Massachusets' prog/power metal presents first 5-song demo 1990 + ''Speak'' private MCD 1991 + 5-song live demo 1993 + 5-song unreleased demo 1994 first time on CD. Over 110 mins of music, all on double CD. Full digital remaster, lyrics, unpublished pics, bio. For all fans of old Fates Warning, Queensryche!

_________________
Image


Top
 Profile E-mail  
 
 
PostPosted: 16 Aug 2012 
хард н хэвщик (support team)
User avatar
Joined: 02 Jun 2008
Posts: 16880
Lоcаtion: Н.Новгород
Age: 31
Name: Артем
ой :oops: Moriah - Fallen Fortress 2010 2CD (Lossless) http://batzbatz.com/progmetal/242926-mo ... sless.html Благодарим также ММТ и Олега spiralarch


Top
 Profile  
 
 
PostPosted: 16 Aug 2012 
Прокъмитолист
User avatar
Joined: 12 Aug 2007
Posts: 6504
Lоcаtion: Санктъ-Петербуркъ
Age: 51
Name: Олекъ
или просто лезем ко мне в подпись )

_________________
прокъметол - это музыко, от которово есть прок (ы)


Top
 Profile  
 
 
PostPosted: 16 Aug 2012 
Хиппей (support team)
User avatar
Joined: 30 Jul 2007
Posts: 108153
Lоcаtion: Киев (Kyiv, UA)
Age: 45
Name: Andrey
Quote:
By_Motherfuckin
:scratch:

_________________


Top
 Profile E-mail  
 
 
PostPosted: 16 Aug 2012 
Хиппей (support team)
User avatar
Joined: 30 Jul 2007
Posts: 108153
Lоcаtion: Киев (Kyiv, UA)
Age: 45
Name: Andrey
aggelos978 wrote:
File Info : mp3 320

Quote:
File Size:250.13 MB
:scratch:

_________________


Top
 Profile E-mail  
 
 
PostPosted: 16 Aug 2012 
Хиппей (support team)
User avatar
Joined: 30 Jul 2007
Posts: 108153
Lоcаtion: Киев (Kyiv, UA)
Age: 45
Name: Andrey
ой :oops: Moriah - Fallen Fortress 2010 2CD (Lossless) http://batzbatz.com/progmetal/242926-mo ... sless.html Благодарим также ММТ и Олега spiralarch

А там ссылка давно швах. Вместе с паролем :pardon: Так что качаем с Олега, кому этот лось нужен :dance:

_________________


Top
 Profile E-mail  
 
 
PostPosted: 13 Feb 2013 
Хиппей (support team)
User avatar
Joined: 30 Jul 2007
Posts: 108153
Lоcаtion: Киев (Kyiv, UA)
Age: 45
Name: Andrey
Moriah [2010] [2CD] Fallen Fortress [EAC-FLAC] by spiralarch [MeTaLMaDNeSS.TeaM] :thanx:

ImageImage

mirror: MultiUp l Narod

log CD1
Exact Audio Copy V1.0 beta 1 from 15. November 2010

EAC extraction logfile from 2. May 2012, 22:43

Moriah / Fallen Fortress CD1

Used drive : Optiarc DVD RW AD-7240S Adapter: 2 ID: 0

Read mode : Secure
Utilize accurate stream : Yes
Defeat audio cache : Yes
Make use of C2 pointers : No

Read offset correction : 48
Overread into Lead-In and Lead-Out : No
Fill up missing offset samples with silence : Yes
Delete leading and trailing silent blocks : No
Null samples used in CRC calculations : Yes
Used interface : Native Win32 interface for Win NT & 2000

Used output format : Internal WAV Routines
Sample format : 44.100 Hz; 16 Bit; Stereo


TOC of the extracted CD

Track | Start | Length | Start sector | End sector
---------------------------------------------------------
1 | 0:00.00 | 5:22.64 | 0 | 24213
2 | 5:22.64 | 4:40.10 | 24214 | 45223
3 | 10:02.74 | 6:45.47 | 45224 | 75645
4 | 16:48.46 | 4:57.34 | 75646 | 97954
5 | 21:46.05 | 6:07.31 | 97955 | 125510
6 | 27:53.36 | 6:38.26 | 125511 | 155386
7 | 34:31.62 | 8:47.13 | 155387 | 194924
8 | 43:19.00 | 5:51.67 | 194925 | 221316
9 | 49:10.67 | 7:24.29 | 221317 | 254645
10 | 56:35.21 | 7:36.43 | 254646 | 288888


Range status and errors

Selected range

Filename D:\spiralarch\Moriah - Fallen Fortress CD1.wav

Peak level 97.7 %
Extraction speed 0.5 X
Range quality 100.0 %
Copy CRC 249603AB
Copy OK

No errors occurred


AccurateRip summary

Track 1 not present in database
Track 2 not present in database
Track 3 not present in database
Track 4 not present in database
Track 5 not present in database
Track 6 not present in database
Track 7 not present in database
Track 8 not present in database
Track 9 not present in database
Track 10 not present in database

None of the tracks are present in the AccurateRip database

End of status report

==== Log checksum C8B642604090CB354F5DCA3681AA54FBE948D020076ABEA3CB57244015E37292 ====

log CD2
Exact Audio Copy V1.0 beta 1 from 15. November 2010

EAC extraction logfile from 2. May 2012, 23:28

Moriah / Fallen Fortress CD2

Used drive : Optiarc DVD RW AD-7240S Adapter: 2 ID: 0

Read mode : Secure
Utilize accurate stream : Yes
Defeat audio cache : Yes
Make use of C2 pointers : No

Read offset correction : 48
Overread into Lead-In and Lead-Out : No
Fill up missing offset samples with silence : Yes
Delete leading and trailing silent blocks : No
Null samples used in CRC calculations : Yes
Used interface : Native Win32 interface for Win NT & 2000

Used output format : Internal WAV Routines
Sample format : 44.100 Hz; 16 Bit; Stereo


TOC of the extracted CD

Track | Start | Length | Start sector | End sector
---------------------------------------------------------
1 | 0:00.00 | 5:32.40 | 0 | 24939
2 | 5:32.40 | 5:32.05 | 24940 | 49844
3 | 11:04.45 | 3:54.74 | 49845 | 67468
4 | 14:59.44 | 4:04.50 | 67469 | 85818
5 | 19:04.19 | 4:20.60 | 85819 | 105378
6 | 23:25.04 | 5:20.45 | 105379 | 129423
7 | 28:45.49 | 5:24.63 | 129424 | 153786
8 | 34:10.37 | 5:29.60 | 153787 | 178521
9 | 39:40.22 | 4:02.70 | 178522 | 196741
10 | 43:43.17 | 3:40.66 | 196742 | 213307


Range status and errors

Selected range

Filename D:\spiralarch\Moriah - Fallen Fortress CD2.wav

Peak level 97.7 %
Extraction speed 0.2 X
Range quality 100.0 %
Copy CRC A5B6D747
Copy OK

No errors occurred


AccurateRip summary

Track 1 not present in database
Track 2 not present in database
Track 3 not present in database
Track 4 not present in database
Track 5 not present in database
Track 6 not present in database
Track 7 not present in database
Track 8 not present in database
Track 9 not present in database
Track 10 not present in database

None of the tracks are present in the AccurateRip database

End of status report

==== Log checksum AC1F14E5878875F76F07DCD795CB514A5EAF6795B5692C05D1B16D5B360E6728 ====

cue CD1
REM GENRE Metal
REM DATE 2010
REM DISCID 730F0B0A
REM COMMENT "ExactAudioCopy v1.0b1"
PERFORMER "Moriah"
TITLE "Fallen Fortress CD1"
FILE "Moriah - Fallen Fortress CD1.flac" WAVE
TRACK 01 AUDIO
TITLE "Holy Child (1991 EP)"
PERFORMER "Moriah"
INDEX 01 00:00:00
TRACK 02 AUDIO
TITLE "Fallen Fortress (1991 EP)"
PERFORMER "Moriah"
INDEX 00 05:22:10
INDEX 01 05:22:64
TRACK 03 AUDIO
TITLE "Come The Dawn (1991 EP)"
PERFORMER "Moriah"
INDEX 00 10:02:09
INDEX 01 10:02:74
TRACK 04 AUDIO
TITLE "Eyes Of Black (1991 EP)"
PERFORMER "Moriah"
INDEX 00 16:48:13
INDEX 01 16:48:46
TRACK 05 AUDIO
TITLE "Tomorrow's Time (1991 EP)"
PERFORMER "Moriah"
INDEX 00 21:44:36
INDEX 01 21:46:05
TRACK 06 AUDIO
TITLE "Salvation (1990 demo)"
PERFORMER "Moriah"
INDEX 00 27:52:59
INDEX 01 27:53:36
TRACK 07 AUDIO
TITLE "Lords Of Time (1990 demo)"
PERFORMER "Moriah"
INDEX 00 34:31:02
INDEX 01 34:31:62
TRACK 08 AUDIO
TITLE "Caught In The Wheel (1990 demo)"
PERFORMER "Moriah"
INDEX 00 43:17:31
INDEX 01 43:19:00
TRACK 09 AUDIO
TITLE "Madman (1990 demo)"
PERFORMER "Moriah"
INDEX 00 49:09:38
INDEX 01 49:10:67
TRACK 10 AUDIO
TITLE "Quest Of Thieves (1990 demo)"
PERFORMER "Moriah"
INDEX 00 56:34:07
INDEX 01 56:35:21

cue CD2
REM GENRE Metal
REM DATE 2010
REM DISCID 780B1C0A
REM COMMENT "ExactAudioCopy v1.0b1"
PERFORMER "Moriah"
TITLE "Fallen Fortress CD2"
FILE "Moriah - Fallen Fortress CD2.flac" WAVE
TRACK 01 AUDIO
TITLE "Until We Sleep Again (1993 live demo)"
PERFORMER "Moriah"
INDEX 01 00:00:00
TRACK 02 AUDIO
TITLE "The Other Side (1993 live demo)"
PERFORMER "Moriah"
INDEX 01 05:32:40
TRACK 03 AUDIO
TITLE "Faceless (1993 live demo)"
PERFORMER "Moriah"
INDEX 01 11:04:45
TRACK 04 AUDIO
TITLE "He Saw The Light (1993 live demo)"
PERFORMER "Moriah"
INDEX 01 14:59:44
TRACK 05 AUDIO
TITLE "You (1993 live demo)"
PERFORMER "Moriah"
INDEX 01 19:04:19
TRACK 06 AUDIO
TITLE "Enraged (1994 demo)"
PERFORMER "Moriah"
INDEX 00 23:20:68
INDEX 01 23:25:04
TRACK 07 AUDIO
TITLE "Eternal Love (1994 demo)"
PERFORMER "Moriah"
INDEX 00 28:44:37
INDEX 01 28:45:49
TRACK 08 AUDIO
TITLE "My Empty Hand (1994 demo)"
PERFORMER "Moriah"
INDEX 00 34:09:19
INDEX 01 34:10:37
TRACK 09 AUDIO
TITLE "The Waiting Truth (1994 demo)"
PERFORMER "Moriah"
INDEX 01 39:40:22
TRACK 10 AUDIO
TITLE "Sacred Life (1994 demo)"
PERFORMER "Moriah"
INDEX 00 43:41:74
INDEX 01 43:43:17

spectrum
Image

_________________


Top
 Profile E-mail  
 
 
PostPosted: 13 Feb 2013 
Хиппей (support team)
User avatar
Joined: 30 Jul 2007
Posts: 108153
Lоcаtion: Киев (Kyiv, UA)
Age: 45
Name: Andrey
И еще несколько раз переслушал альбом уже в беспотерьном качестве.
Ну как? А никак. Про качество демок промолчу, оно не лучше чем в мп3. А вот концертные трэки понравились на этот раз больше. Чувствуется в них некая живчиковость. А то демки звучат сухо, приторно и ну... ваще никак не впечатляет музыка :vic:

4-/10

_________________


Top
 Profile E-mail  
 
 
PostPosted: 13 Feb 2013 
Прокъмитолист
User avatar
Joined: 12 Aug 2007
Posts: 6504
Lоcаtion: Санктъ-Петербуркъ
Age: 51
Name: Олекъ
а какое отношение имеет прогпаверная Мория к той, что в заголовке топика? :oops:

_________________
прокъметол - это музыко, от которово есть прок (ы)


Top
 Profile  
 
 
PostPosted: 13 Feb 2013 
Хиппей (support team)
User avatar
Joined: 30 Jul 2007
Posts: 108153
Lоcаtion: Киев (Kyiv, UA)
Age: 45
Name: Andrey
Опа :shok:
Явно названия у них схожи :scratch:

_________________


Top
 Profile E-mail  
 
 
PostPosted: 15 Feb 2013 
консэрваторъ
Joined: 11 Aug 2007
Posts: 16199
Lоcаtion: Псков
Age: 44
Name: Сергей
Явно тему надо разделять... :dance:

_________________
THRASH 'EM ALL


Top
 Profile E-mail  
 
 
PostPosted: 18 Jul 2013 
Хиппей (support team)
User avatar
Joined: 30 Jul 2007
Posts: 108153
Lоcаtion: Киев (Kyiv, UA)
Age: 45
Name: Andrey
Явно тему надо разделять... :dance:

Да хрен с ней.
Намешали так, шо я щас ничо не пойму :fingal:

_________________


Top
 Profile E-mail  
 
 
PostPosted: 18 Jul 2013 
парень в очёчкXаX!
User avatar
Joined: 15 Aug 2007
Posts: 2353
Lоcаtion: UK'раина, г. ЛондАн Би-Би-Си
Age: 48
Name: Сергей
Quote:
Moriah [2010] [2CD] Fallen Fortress [EAC-FLAC]

картинко понравилась! заберу в свою Картинную Халеею
а музычко,,??? ну этот прог-металл, пора прекращать его слу' :meloman:
УдоДиркшнайдерОркестра 2013 - вот это металЪ!!!! :true: :true: :true:

:oops:


я так и не понял, металл или прог, тока картинку съел!
этих Мориахов куча и кто есть кто?

спок ночи!


Top
 Profile  
 
 
PostPosted: 18 Jul 2013 
Хиппей (support team)
User avatar
Joined: 30 Jul 2007
Posts: 108153
Lоcаtion: Киев (Kyiv, UA)
Age: 45
Name: Andrey
attax wrote:
этих Мориахов куча и кто есть кто?

Та ну их у дупу. Упарился я разбираться кто есть хто :yyy:

_________________


Top
 Profile E-mail  
 
Display posts from previous:  Sort by  
Post new topic Reply to topic  [ 38 posts ]  Go to page Previous  1, 2

All times are UTC + 3 hours


Who is online

Users browsing this forum: No registered users and 1 guest


You cannot post new topics in this forum
You cannot reply to topics in this forum
You cannot edit your posts in this forum
You cannot delete your posts in this forum
You cannot post attachments in this forum

Search for:
Яндекс.Метрика
Powered by phpBB © 2000, 2002, 2005, 2007 phpBB Group