\m/ 80's metal \m/

Информационно-аналитический форум "80 см пыли" (In Search We Trust) "У нас никто никуда не спешит"
Me For You - http://me-4u.com
It is currently 22 Sep 2018

All times are UTC + 3 hours

Spoiler
Chat - temporary registration for foreign users (please leave your application here)







Post new topic Reply to topic  [ 16 posts ] 
Author Message
 
PostPosted: 09 Oct 2009 
хард н хэвщик (support team)
User avatar
Joined: 02 Jun 2008
Posts: 16880
Lоcаtion: Н.Новгород
Age: 31
Name: Артем
Image

Mind's Eye was a progressive metal band from Orlando, FL that formed in 1989. The band released a 5 song EP in 1991 entitled "The Witching Hour", and full length album in 1992 entitled "Darkly Wise".

Редкая вещуга. В интернете информации , касающейся группы , нашел немного: страничка на фейсбуке гитариста и кем-то заботливо выложенные песни на ilike.com (но в битрейте 128)

Image

Mind's Eye - (1992) Darkly Wise [128]

01 - Arrival.mp3
02 - October Queen.mp3
03 - Within The Mind's Eye.mp3
04 - Storm Rising.mp3
05 - Endless Rain.mp3
06 - So Long (My Love).mp3
07 - Kill Aphrodite.mp3
08 - What I Can't See.mp3
09 - Fallen Trees.mp3
10 - Master Of The Game.mp3
11 - Darkly Wise.mp3

http://ifolder.ru/14405513


Minds Eye - (1991) The WItching Hour [EP] [128]

01 - ShadowplayUnveiled.mp3
02 - Curtains Will Fall.mp3
03 - The Witching Hour.mp3
04 - Deus Ex Machina.mp3
05 - The Intruder.mp3

http://ifolder.ru/14405543

или всё в одном флаконе: http://www.megaupload.com/?d=01A9SJ87


Top
 Profile  
 
 
PostPosted: 15 Dec 2009 
адын фелософъ прокметолу
User avatar
Joined: 22 Oct 2009
Posts: 2689
Lоcаtion: Сочи
Age: 41
Name: Сергей
Артём, спасибо, что познакомил с неплохой группой. :true:

_________________
А теперь ... клоунов и стриптизёрш!


Top
 Profile E-mail  
 
 
PostPosted: 14 Jan 2010 
Персональный статус
User avatar
Joined: 27 Nov 2008
Posts: 429
Age: 29
Name: Сергей
McKagan
Спасибо. Всеже Ребято с того города откуда одна из моих любимых групп.


Top
 Profile  
 
 
PostPosted: 14 Jan 2010 
А может смените мне статус?..
User avatar
Joined: 08 Jul 2009
Posts: 893
Lоcаtion: Харьков
Age: 44
Name: Юрий
Thanks!!!
Даже не слышал никогда о существовании группы!!! :shok: :shok:
На уме только шведы были Mind's Eye !!!


Top
 Profile  
 
 
PostPosted: 14 Jan 2010 
Power Metal Maniac
User avatar
Joined: 09 Aug 2008
Posts: 6299
Lоcаtion: Москва
Age: 40
Name: Егор
прог аднозначно забираю! :thanx:

_________________
Long Live Metal!


Top
 Profile  
 
 
PostPosted: 14 Jan 2010 
Хиппей (support team)
User avatar
Joined: 30 Jul 2007
Posts: 106427
Lоcаtion: Киев (Kyiv, UA)
Age: 45
Name: Andrey
Спасибо за инфу и альбомы! :thanx:

Другая американская ME http://metal-archives.com/band.php?id=3540291430 :oops:

_________________


Top
 Profile E-mail  
 
 
PostPosted: 25 Jun 2018 
Хиппей (support team)
User avatar
Joined: 30 Jul 2007
Posts: 106427
Lоcаtion: Киев (Kyiv, UA)
Age: 45
Name: Andrey
https://soundcloud.com/darthchuckmc/sets/darkly-wise

Месяц назад полный альбом, демка и прочий материал были переизданы.

https://www.discogs.com/Minds-Eye-Darkl ... e/12104581

_________________


Top
 Profile E-mail  
 
 
PostPosted: 25 Jun 2018 
адын фелософъ прокметолу
User avatar
Joined: 22 Oct 2009
Posts: 2689
Lоcаtion: Сочи
Age: 41
Name: Сергей
ага закажем после ЧМ 2018

_________________
А теперь ... клоунов и стриптизёрш!


Top
 Profile E-mail  
 
 
PostPosted: 25 Jun 2018 
Хиппей (support team)
User avatar
Joined: 30 Jul 2007
Posts: 106427
Lоcаtion: Киев (Kyiv, UA)
Age: 45
Name: Andrey
А вот и ура-ура :dance:

_________________


Top
 Profile E-mail  
 
 
PostPosted: 03 Jul 2018 
Хиппей (support team)
User avatar
Joined: 30 Jul 2007
Posts: 106427
Lоcаtion: Киев (Kyiv, UA)
Age: 45
Name: Andrey

_________________


Top
 Profile E-mail  
 
 
PostPosted: 03 Jul 2018 
Хиппей (support team)
User avatar
Joined: 30 Jul 2007
Posts: 106427
Lоcаtion: Киев (Kyiv, UA)
Age: 45
Name: Andrey
На полном альбоме 3-4 композиции весьма приятственны и хитовы. Остальной материал слабоват.
И в первую очередь из-за вокала :( Хоть он и немного поблескивает оригинальностью. Нытиём неким, шоле :scratch:

6/10

_________________


Top
 Profile E-mail  
 
 
PostPosted: 04 Jul 2018 
адын фелософъ прокметолу
User avatar
Joined: 22 Oct 2009
Posts: 2689
Lоcаtion: Сочи
Age: 41
Name: Сергей
заказал диск будем ждать когда придёт

_________________
А теперь ... клоунов и стриптизёрш!


Top
 Profile E-mail  
 
 
PostPosted: 23 Jul 2018 
адын фелософъ прокметолу
User avatar
Joined: 22 Oct 2009
Posts: 2689
Lоcаtion: Сочи
Age: 41
Name: Сергей
Диск Пришёл
И можно сказать что это приятный слушабельный хэви-металл с небольшими вкроплениями прога. Этим альбомом можно скрасить вечера в ожидании выхода нового альбома REDEMPTION

_________________
А теперь ... клоунов и стриптизёрш!


Top
 Profile E-mail  
 
 
PostPosted: 24 Jul 2018 
Хиппей (support team)
User avatar
Joined: 30 Jul 2007
Posts: 106427
Lоcаtion: Киев (Kyiv, UA)
Age: 45
Name: Andrey
Урря, дякую :thanx:

Mind's Eye - 2018 - Darkly Wise [flac]

Image Image Image Image

mirror: Uloz l Drop l Narod l M-Cloud


Image Image Image Image

Image Image Image Image

log
Exact Audio Copy V1.0 beta 3 from 29. August 2011

Отчёт EAC об извлечении, выполненном 23. июля 2018, 0:03

Mind's Eye / Darkly Wise

Дисковод: ASUS DRW-24D5MT Adapter: 0 ID: 0

Режим чтения : Достоверность
Использование точного потока : Да
Отключение кэша аудио : Да
Использование указателей C2 : Нет

Коррекция смещения при чтении : 6
Способность читать области Lead-in и Lead-out : Нет
Заполнение пропущенных сэмплов тишиной : Да
Удаление блоков с тишиной в начале и конце : Нет
При вычислениях CRC использовались нулевые сэмплы : Да
Интерфейс : Встроенный Win32-интерфейс для Win NT/2000

Выходной формат : Внутренние WAV-операции
Формат сэмплов : 44.100 Гц; 16 бит; стерео


TOC извлечённого CD

Трек | Старт | Длительность | Начальный сектор | Конечный сектор
---------------------------------------------------------------------
1 | 0:00.00 | 4:54.68 | 0 | 22117
2 | 4:54.68 | 3:34.70 | 22118 | 38237
3 | 8:29.63 | 6:15.18 | 38238 | 66380
4 | 14:45.06 | 4:46.10 | 66381 | 87840
5 | 19:31.16 | 4:16.56 | 87841 | 107096
6 | 23:47.72 | 1:51.00 | 107097 | 115421
7 | 25:38.72 | 4:52.55 | 115422 | 137376
8 | 30:31.52 | 3:25.04 | 137377 | 152755
9 | 33:56.56 | 5:30.10 | 152756 | 177515
10 | 39:26.66 | 3:55.34 | 177516 | 195174
11 | 43:22.25 | 6:30.13 | 195175 | 224437
12 | 49:52.38 | 5:13.00 | 224438 | 247912
13 | 55:05.38 | 4:27.03 | 247913 | 267940
14 | 59:32.41 | 4:31.30 | 267941 | 288295
15 | 64:03.71 | 4:48.57 | 288296 | 309952
16 | 68:52.53 | 4:16.58 | 309953 | 329210


Характеристики диапазона извлечения и сообщения об ошибках

Выбранный диапазон

Имя файла C:\Users\Сергей\Downloads\Архивы\Mind's Eye - Darkly Wise (2018)\Mind's Eye - Darkly Wise.wav

Пиковый уровень 97.7 %
Скорость извлечения 2.1 X
Качество диапазона 100.0 %
CRC копии 43E10E2E
Копирование... OK

Ошибок не произошло


AccurateRip: сводка

Трек 1 отсутствует в базе данных
Трек 2 отсутствует в базе данных
Трек 3 отсутствует в базе данных
Трек 4 отсутствует в базе данных
Трек 5 отсутствует в базе данных
Трек 6 отсутствует в базе данных
Трек 7 отсутствует в базе данных
Трек 8 отсутствует в базе данных
Трек 9 отсутствует в базе данных
Трек 10 отсутствует в базе данных
Трек 11 отсутствует в базе данных
Трек 12 отсутствует в базе данных
Трек 13 отсутствует в базе данных
Трек 14 отсутствует в базе данных
Трек 15 отсутствует в базе данных
Трек 16 отсутствует в базе данных

Ни одного трека нет в базе AccurateRip

Конец отчёта

cue
REM GENRE "Heavy Metal"
REM DATE 2018
REM DISCID EA112510
REM COMMENT "ExactAudioCopy v1.0b3"
PERFORMER "Mind's Eye"
TITLE "Darkly Wise"
FILE "Mind's Eye - Darkly Wise.wav" WAVE
TRACK 01 AUDIO
TITLE "Arrival"
PERFORMER "Mind's Eye"
INDEX 01 00:00:00
TRACK 02 AUDIO
TITLE "October Queen"
PERFORMER "Mind's Eye"
INDEX 00 04:54:10
INDEX 01 04:54:68
TRACK 03 AUDIO
TITLE "Within the Mind's Eye"
PERFORMER "Mind's Eye"
INDEX 00 08:28:59
INDEX 01 08:29:63
TRACK 04 AUDIO
TITLE "Storm Rising"
PERFORMER "Mind's Eye"
INDEX 00 14:44:74
INDEX 01 14:45:06
TRACK 05 AUDIO
TITLE "Endless Rain"
PERFORMER "Mind's Eye"
INDEX 01 19:31:16
TRACK 06 AUDIO
TITLE "So Long (My Love)"
PERFORMER "Mind's Eye"
INDEX 00 23:47:17
INDEX 01 23:47:72
TRACK 07 AUDIO
TITLE "Kill Aphrodite"
PERFORMER "Mind's Eye"
INDEX 01 25:38:72
TRACK 08 AUDIO
TITLE "What I Can't See"
PERFORMER "Mind's Eye"
INDEX 00 30:31:06
INDEX 01 30:31:52
TRACK 09 AUDIO
TITLE "Fallen Trees"
PERFORMER "Mind's Eye"
INDEX 00 33:56:21
INDEX 01 33:56:56
TRACK 10 AUDIO
TITLE "Master of the Game"
PERFORMER "Mind's Eye"
INDEX 00 39:26:10
INDEX 01 39:26:66
TRACK 11 AUDIO
TITLE "Darkly Wise"
PERFORMER "Mind's Eye"
INDEX 00 43:21:03
INDEX 01 43:22:25
TRACK 12 AUDIO
TITLE "Shadowplay/Unveiled "
PERFORMER "Mind's Eye"
INDEX 00 49:51:26
INDEX 01 49:52:38
TRACK 13 AUDIO
TITLE "Curtains Will Fall"
PERFORMER "Mind's Eye"
INDEX 00 55:04:67
INDEX 01 55:05:38
TRACK 14 AUDIO
TITLE "The Witching Hour"
PERFORMER "Mind's Eye"
INDEX 00 59:31:39
INDEX 01 59:32:41
TRACK 15 AUDIO
TITLE "Deus Ex Machina"
PERFORMER "Mind's Eye"
INDEX 00 64:03:05
INDEX 01 64:03:71
TRACK 16 AUDIO
TITLE "The Intruder"
PERFORMER "Mind's Eye"
INDEX 00 68:52:28
INDEX 01 68:52:53

_________________


Top
 Profile E-mail  
 
 
PostPosted: 24 Jul 2018 
Прокъмитолист
User avatar
Joined: 12 Aug 2007
Posts: 6471
Lоcаtion: Санктъ-Петербуркъ
Age: 50
Name: Олекъ
спасибо, Серёга! :thanx:

_________________
прокъметол - это музыко, от которово есть прок (ы)


Top
 Profile  
 
 
PostPosted: 26 Jul 2018 
Хиппей (support team)
User avatar
Joined: 30 Jul 2007
Posts: 106427
Lоcаtion: Киев (Kyiv, UA)
Age: 45
Name: Andrey
2-3 песни на альбоме весьма понравились. В остальном тривиальный прог-павер :pardon:

6/10

зы. Порадовали и 2-3 песни тяжеленькие в концовоцке этого сборника :true:

_________________


Top
 Profile E-mail  
 
Display posts from previous:  Sort by  
Post new topic Reply to topic  [ 16 posts ] 

All times are UTC + 3 hours


Who is online

Users browsing this forum: No registered users and 1 guest


You cannot post new topics in this forum
You cannot reply to topics in this forum
You cannot edit your posts in this forum
You cannot delete your posts in this forum
You cannot post attachments in this forum

Search for:
Яндекс.Метрика
Powered by phpBB © 2000, 2002, 2005, 2007 phpBB Group