\m/ 80's metal \m/

Информационно-аналитический форум "80 см пыли" (In Search We Trust) "У нас никто никуда не спешит"
Me For You - http://me-4u.com
It is currently 13 Nov 2018

All times are UTC + 3 hours

Spoiler
Chat - temporary registration for foreign users (please leave your application here)







Post new topic Reply to topic  [ 4 posts ] 
Author Message
 
PostPosted: 05 Oct 2009 
Хиппей (support team)
User avatar
Joined: 30 Jul 2007
Posts: 107899
Lоcаtion: Киев (Kyiv, UA)
Age: 45
Name: Andrey
Mortal Sin - 1986 - Mayhemic Destruction + Lethal - 1987 - Arrival (bootleg split CD) [flac]

    Image

    Image

Mega
Narod

За альбом спасибо дяде Мише aka VARVAAR :thanx:

    Image

зы. Дооформлю чуть позже... И лося еще не слушал, естественно. Чищу винт, бэкаплю файлы... :oops:

log
EAC extraction logfile from 3. August 2009, 19:07 for CD
Mortal Sin & Lethal / Mayhemic Destruction & The Arrival

Used drive : _NEC DVD_RW ND-3520A Adapter: 1 ID: 0
Read mode : Secure with NO C2, accurate stream, disable cache
Read offset correction : 48
Overread into Lead-In and Lead-Out : No

Used output format : Internal WAV Routines
44.100 Hz; 16 Bit; Stereo

Other options :
Fill up missing offset samples with silence : Yes
Delete leading and trailing silent blocks : No
Installed external ASPI interface


Range status and errors
Selected range
Filename F:\320 rare\Mortal_sin_[1987]_Mayheme_destruction_Lethal[1987]Arrival_bootleg split1049byV\CDImage.wav

Peak level 97.4 %
Range quality 99.9 %
CRC 67B50013
Copy OK

No errors occured

End of status report


cue
PERFORMER "Mortal Sin & Lethal"
TITLE "Mayhemic Destruction & The Arrival"
FILE "CDImage.wav" WAVE
TRACK 01 AUDIO
TITLE "The Curse"
PERFORMER "Mortal Sin & Lethal"
ISRC 000000000000
INDEX 01 00:00:00
TRACK 02 AUDIO
TITLE "Women In Leather"
PERFORMER "Mortal Sin & Lethal"
ISRC 000000000000
INDEX 00 02:22:07
INDEX 01 02:24:01
TRACK 03 AUDIO
TITLE "Lebanon"
PERFORMER "Mortal Sin & Lethal"
ISRC 000000000000
INDEX 00 07:08:68
INDEX 01 07:10:64
TRACK 04 AUDIO
TITLE "Liar"
PERFORMER "Mortal Sin & Lethal"
ISRC 000000000000
INDEX 00 14:24:69
INDEX 01 14:26:62
TRACK 05 AUDIO
TITLE "Blood, Death, Hatred"
PERFORMER "Mortal Sin & Lethal"
ISRC 000000000000
INDEX 00 18:41:18
INDEX 01 18:43:17
TRACK 06 AUDIO
TITLE "Mortal Slaughter"
PERFORMER "Mortal Sin & Lethal"
ISRC 000000000000
INDEX 00 22:33:11
INDEX 01 22:35:04
TRACK 07 AUDIO
TITLE "Into The Fire"
PERFORMER "Mortal Sin & Lethal"
ISRC 000000000000
INDEX 00 25:44:64
INDEX 01 25:46:49
TRACK 08 AUDIO
TITLE "Mayhemic Destruction"
PERFORMER "Mortal Sin & Lethal"
ISRC 000000000000
INDEX 00 30:23:32
INDEX 01 30:25:17
TRACK 09 AUDIO
TITLE "Land Of The Free"
PERFORMER "Mortal Sin & Lethal"
ISRC 000000000000
INDEX 00 35:31:19
INDEX 01 35:33:06
TRACK 10 AUDIO
TITLE "Just Before Dawn"
PERFORMER "Mortal Sin & Lethal"
ISRC 000000000000
INDEX 00 39:06:53
INDEX 01 39:08:33
TRACK 11 AUDIO
TITLE "Arrival"
PERFORMER "Mortal Sin & Lethal"
ISRC 000000000000
INDEX 00 42:20:16
INDEX 01 42:22:04
TRACK 12 AUDIO
TITLE "Tomorrow's King"
PERFORMER "Mortal Sin & Lethal"
ISRC 000000000000
INDEX 00 46:49:49
INDEX 01 46:51:39

_________________


Top
 Profile E-mail  
 
 
PostPosted: 05 Oct 2009 
Дежурный по КУПу
User avatar
Joined: 17 Aug 2007
Posts: 5869
Age: 50
Name: Ге
Scatterbrain wrote:
бэкаплю файлы...

Куда, на файлообменники? :shok: Они же там пропадут :shok:

_________________
http://jp-mania.ru/
http://jp-tourdates.ucoz.ru/


Top
 Profile  
 
 
PostPosted: 05 Oct 2009 
Хиппей (support team)
User avatar
Joined: 30 Jul 2007
Posts: 107899
Lоcаtion: Киев (Kyiv, UA)
Age: 45
Name: Andrey
German wrote:
Они же там пропадут :shok:

С фигли бы? Я ж продлеваю. Не то, что некоторые :be:

_________________


Top
 Profile E-mail  
 
 
PostPosted: 20 Mar 2010 
Thrasher
User avatar
Joined: 07 Oct 2007
Posts: 2756
Lоcаtion: Russia, Moscow
Age: 34
Name: Drunk & Evil
Спасибо! :thanx:

_________________
ВОДКА, БАБЫ И БЛЮЗ / 40° till death... :bodun:
One time we saw some hookers, but when we got closer, we realised it was Mötley Crüe. ©


Top
 Profile  
 
Display posts from previous:  Sort by  
Post new topic Reply to topic  [ 4 posts ] 

All times are UTC + 3 hours


Who is online

Users browsing this forum: No registered users and 2 guests


You cannot post new topics in this forum
You cannot reply to topics in this forum
You cannot edit your posts in this forum
You cannot delete your posts in this forum
You cannot post attachments in this forum

Search for:
Яндекс.Метрика
Powered by phpBB © 2000, 2002, 2005, 2007 phpBB Group