\m/ 80's metal \m/

Информационно-аналитический форум "80 см пыли" (In Search We Trust) "У нас никто никуда не спешит"
Me For You - http://me-4u.com
It is currently 22 Sep 2018

All times are UTC + 3 hours

Spoiler
Chat - temporary registration for foreign users (please leave your application here)







Post new topic Reply to topic  [ 5 posts ] 
Author Message
 
PostPosted: 23 Sep 2009 
Генеральный thrasher
User avatar
Joined: 03 Oct 2008
Posts: 3449
Lоcаtion: Ханты-Мансийский АО
Age: 43
Name: Сергей
Image

Year: 1987 & 1989
Style: Thrash/Crossover
Country: U.S.A.
Audio: flac+cue+log
Size: 276 Mb+259Mb
Label:SPV

Image

Tracklist:
1. Aren't You Hungry 03:26
2. Get A Real Job 02:10
3. I Executioner 02:31
4. Don't Feed The Bears 01:03
5. Ballad Of Dio 00:12
6. Thrash Or Be Thrashed 00:52
7. Let Me Out 01:40
8. Bubble Butt 00:43
9. You're Beat 02:15
10. Bushwackateas 00:20
11. Man Of Your Dreams 03:40
12. That Noise 00:13
13. Dead Man/Most/Captain Crunch 03:30
14. Jim Gordon 02:40
15. Imported Society 01:46
16. Spandex Enormity 05:28
17. Short But Sweet 00:07
18. Parents 01:40
19. Confusion/You're X'ed (The Faith cover) 02:49
20. A.I.D.S. 02:00
21. Ruptured Nuptuals 00:14
22. Ode To Harry 01:32
23. Hate Tank 02:20

Cue
REM GENRE Hardcore
REM DATE 1987
REM DISCID 400A2A17
REM COMMENT "ExactAudioCopy v0.99pb4"
PERFORMER "M.O.D."
TITLE "U.S.A for M.O.D."
FILE "M.O.D. - U.S.A for M.O.D..flac" WAVE
TRACK 01 AUDIO
TITLE "Aren't You Hungry"
PERFORMER "M.O.D."
INDEX 00 00:00:00
INDEX 01 00:00:32
TRACK 02 AUDIO
TITLE "Get A Real Job"
PERFORMER "M.O.D."
INDEX 01 03:27:35
TRACK 03 AUDIO
TITLE "I Executioner"
PERFORMER "M.O.D."
INDEX 01 05:38:07
TRACK 04 AUDIO
TITLE "Don't Feed The Bears"
PERFORMER "M.O.D."
INDEX 01 08:09:32
TRACK 05 AUDIO
TITLE "Ballad Of Dio"
PERFORMER "M.O.D."
INDEX 01 09:12:55
TRACK 06 AUDIO
TITLE "Thrash Or Be Thrashed"
PERFORMER "M.O.D."
INDEX 01 09:25:27
TRACK 07 AUDIO
TITLE "Let Me Out"
PERFORMER "M.O.D."
INDEX 01 10:17:32
TRACK 08 AUDIO
TITLE "Bubble Butt"
PERFORMER "M.O.D."
INDEX 01 11:57:62
TRACK 09 AUDIO
TITLE "You're Beat"
PERFORMER "M.O.D."
INDEX 01 12:41:65
TRACK 10 AUDIO
TITLE "Bushwackateas"
PERFORMER "M.O.D."
INDEX 01 14:57:57
TRACK 11 AUDIO
TITLE "Man Of Your Dreams"
PERFORMER "M.O.D."
INDEX 01 15:18:02
TRACK 12 AUDIO
TITLE "That Noise"
PERFORMER "M.O.D."
INDEX 01 18:58:40
TRACK 13 AUDIO
TITLE "Dead Men / Most / Captain Crunch"
PERFORMER "M.O.D."
INDEX 01 19:12:05
TRACK 14 AUDIO
TITLE "Jim Gordon"
PERFORMER "M.O.D."
INDEX 01 22:42:55
TRACK 15 AUDIO
TITLE "Imported Society"
PERFORMER "M.O.D."
INDEX 01 25:23:05
TRACK 16 AUDIO
TITLE "Spandex Enormity"
PERFORMER "M.O.D."
INDEX 01 27:09:62
TRACK 17 AUDIO
TITLE "Short But Sweet"
PERFORMER "M.O.D."
INDEX 01 32:38:00
TRACK 18 AUDIO
TITLE "Parents"
PERFORMER "M.O.D."
INDEX 01 32:45:25
TRACK 19 AUDIO
TITLE "Confusion"
PERFORMER "M.O.D."
INDEX 01 34:25:42
TRACK 20 AUDIO
TITLE "A.I.D.S"
PERFORMER "M.O.D."
INDEX 01 37:14:57
TRACK 21 AUDIO
TITLE "Ruptured Nuptuals"
PERFORMER "M.O.D."
INDEX 01 39:15:07
TRACK 22 AUDIO
TITLE "Ode To Harry"
PERFORMER "M.O.D."
INDEX 01 39:29:25
TRACK 23 AUDIO
TITLE "Hate Tank"
PERFORMER "M.O.D."
INDEX 01 41:01:45


Log
Exact Audio Copy V0.99 prebeta 4 from 23. January 2008

Отчёт EAC об извлечении, выполненном 23. сентября 2009, 11:07

M.O.D. / U.S.A for M.O.D.

Дисковод: ATAPI DVD A DH20A4P Adapter: 0 ID: 1

Режим чтения : Достоверность
Использование точного потока : Да
Отключение кэша аудио : Да
Использование указателей C2 : Нет

Коррекция смещения при чтении : 6
Способность читать области Lead-in и Lead-out : Нет
Заполнение пропущенных сэмплов тишиной : Да
Удаление блоков с тишиной в начале и конце : Нет
При вычислениях CRC использовались нулевые сэмплы : Нет
Интерфейс : Встроенный Win32-интерфейс для Win NT/2000

Выходной формат : Пользовательский кодировщик
Выбранный битрейт : 768 kBit/s
Качество : Высокий
Добавление ID3-тэга : Нет
Утилита сжатия : C:\Program Files\Exact Audio Copy\FLAC\FLAC.EXE
Дополнительные параметры : -6 -V -T "ARTIST=%a" -T "TITLE=%t" -T "ALBUM=%g" -T "DATE=%y" -T "TRACKNUMBER=%n" -T "GENRE=%m" -T "COMMENT=%e" %s -o %d


TOC извлечённого CD

Трек | Старт | Длительность | Начальный сектор | Конечный сектор
---------------------------------------------------------------------
1 | 0:00.32 | 3:27.03 | 32 | 15559
2 | 3:27.35 | 2:10.47 | 15560 | 25356
3 | 5:38.07 | 2:31.25 | 25357 | 36706
4 | 8:09.32 | 1:03.23 | 36707 | 41454
5 | 9:12.55 | 0:12.47 | 41455 | 42401
6 | 9:25.27 | 0:52.05 | 42402 | 46306
7 | 10:17.32 | 1:40.30 | 46307 | 53836
8 | 11:57.62 | 0:44.03 | 53837 | 57139
9 | 12:41.65 | 2:15.67 | 57140 | 67331
10 | 14:57.57 | 0:20.20 | 67332 | 68851
11 | 15:18.02 | 3:40.38 | 68852 | 85389
12 | 18:58.40 | 0:13.40 | 85390 | 86404
13 | 19:12.05 | 3:30.50 | 86405 | 102204
14 | 22:42.55 | 2:40.25 | 102205 | 114229
15 | 25:23.05 | 1:46.57 | 114230 | 122236
16 | 27:09.62 | 5:28.13 | 122237 | 146849
17 | 32:38.00 | 0:07.25 | 146850 | 147399
18 | 32:45.25 | 1:40.17 | 147400 | 154916
19 | 34:25.42 | 2:49.15 | 154917 | 167606
20 | 37:14.57 | 2:00.25 | 167607 | 176631
21 | 39:15.07 | 0:14.18 | 176632 | 177699
22 | 39:29.25 | 1:32.20 | 177700 | 184619
23 | 41:01.45 | 2:20.30 | 184620 | 195149


Характеристики диапазона извлечения и сообщения об ошибках

Выбранный диапазон

Имя файла D:\Lossless Music\M.O.D. - U.S.A for M.O.D..wav

Пиковый уровень 100.0 %
Качество диапазона 100.0 %
CRC копии 91C29FA1
Копирование... OK

Ошибок не произошло


Конец отчёта


Image

Tracklist:
1. No Hope 04:12
2. No Glove No Love 02:51
3. True Colors 03:48
4. Accident Scene 03:12
5. Godzula 02:25
6. E Factor 03:08
7. Gross Misconduct 04:03
8. Satan's Cronies 02:37
9. In The City (Fear Cover) 01:58
10. Come As You Are 02:44
11. Vents 00:13
12. Theme 02:06
13. P.B.M. 00:28
14. The Ride 05:00
15. Dark Knight 05:58

Cue
REM GENRE Hardcore
REM DATE 1989
REM DISCID C4091C0E
REM COMMENT "ExactAudioCopy v0.99pb4"
PERFORMER "M.O.D."
TITLE "Gross Misconduct"
FILE "M.O.D. - Gross Misconduct.flac" WAVE
TRACK 01 AUDIO
TITLE "No Hope"
PERFORMER "M.O.D."
INDEX 00 00:00:00
INDEX 01 00:00:32
TRACK 02 AUDIO
TITLE "No Glove No Love"
PERFORMER "M.O.D."
INDEX 01 04:13:50
TRACK 03 AUDIO
TITLE "True Colors"
PERFORMER "M.O.D."
INDEX 01 07:05:30
TRACK 04 AUDIO
TITLE "Accident Scene"
PERFORMER "M.O.D."
INDEX 01 10:54:07
TRACK 05 AUDIO
TITLE "Godzula"
PERFORMER "M.O.D."
INDEX 01 14:06:15
TRACK 06 AUDIO
TITLE "E Factor"
PERFORMER "M.O.D."
INDEX 01 16:31:40
TRACK 07 AUDIO
TITLE "Gross Misconduct"
PERFORMER "M.O.D."
INDEX 01 19:40:22
TRACK 08 AUDIO
TITLE "Satan's Cronies"
PERFORMER "M.O.D."
INDEX 01 23:43:22
TRACK 09 AUDIO
TITLE "In The City"
PERFORMER "M.O.D."
INDEX 01 26:21:22
TRACK 10 AUDIO
TITLE "Come As You Are"
PERFORMER "M.O.D."
INDEX 01 28:19:05
TRACK 11 AUDIO
TITLE "Vents"
PERFORMER "M.O.D."
INDEX 01 31:03:72
TRACK 12 AUDIO
TITLE "Theme"
PERFORMER "M.O.D."
INDEX 01 31:17:07
TRACK 13 AUDIO
TITLE "P.B.M."
PERFORMER "M.O.D."
INDEX 01 33:23:30
TRACK 14 AUDIO
TITLE "The Ride"
PERFORMER "M.O.D."
INDEX 01 33:52:10


Log
Exact Audio Copy V0.99 prebeta 4 from 23. January 2008

Отчёт EAC об извлечении, выполненном 23. сентября 2009, 11:24

M.O.D. / Gross Misconduct

Дисковод: ATAPI DVD A DH20A4P Adapter: 0 ID: 1

Режим чтения : Достоверность
Использование точного потока : Да
Отключение кэша аудио : Да
Использование указателей C2 : Нет

Коррекция смещения при чтении : 6
Способность читать области Lead-in и Lead-out : Нет
Заполнение пропущенных сэмплов тишиной : Да
Удаление блоков с тишиной в начале и конце : Нет
При вычислениях CRC использовались нулевые сэмплы : Нет
Интерфейс : Встроенный Win32-интерфейс для Win NT/2000

Выходной формат : Пользовательский кодировщик
Выбранный битрейт : 768 kBit/s
Качество : Высокий
Добавление ID3-тэга : Нет
Утилита сжатия : C:\Program Files\Exact Audio Copy\FLAC\FLAC.EXE
Дополнительные параметры : -6 -V -T "ARTIST=%a" -T "TITLE=%t" -T "ALBUM=%g" -T "DATE=%y" -T "TRACKNUMBER=%n" -T "GENRE=%m" -T "COMMENT=%e" %s -o %d


TOC извлечённого CD

Трек | Старт | Длительность | Начальный сектор | Конечный сектор
---------------------------------------------------------------------
1 | 0:00.32 | 4:13.18 | 32 | 19024
2 | 4:13.50 | 2:51.55 | 19025 | 31904
3 | 7:05.30 | 3:48.52 | 31905 | 49056
4 | 10:54.07 | 3:12.08 | 49057 | 63464
5 | 14:06.15 | 2:25.25 | 63465 | 74364
6 | 16:31.40 | 3:08.57 | 74365 | 88521
7 | 19:40.22 | 4:03.00 | 88522 | 106746
8 | 23:43.22 | 2:38.00 | 106747 | 118596
9 | 26:21.22 | 1:57.58 | 118597 | 127429
10 | 28:19.05 | 2:44.67 | 127430 | 139796
11 | 31:03.72 | 0:13.10 | 139797 | 140781
12 | 31:17.07 | 2:06.23 | 140782 | 150254
13 | 33:23.30 | 0:28.55 | 150255 | 152409
14 | 33:52.10 | 5:00.22 | 152410 | 174931


Характеристики диапазона извлечения и сообщения об ошибках

Выбранный диапазон

Имя файла D:\Lossless Music\M.O.D. - Gross Misconduct.wav

Пиковый уровень 91.8 %
Качество диапазона 99.9 %
CRC копии 292D2AEF
Копирование... OK

Ошибок не произошло



Конец отчёта


U.S.A. for M.O.D.
Gross Misconduct
Scans ( 17Mb)


Top
 Profile  
 
 
PostPosted: 23 Sep 2009 
Генеральный thrasher
User avatar
Joined: 03 Oct 2008
Posts: 3449
Lоcаtion: Ханты-Мансийский АО
Age: 43
Name: Сергей
Мои любимые альбомы этой формации...


Top
 Profile  
 
 
PostPosted: 23 Sep 2009 
HAMMER
User avatar
Joined: 16 May 2009
Posts: 5367
Lоcаtion: Тверь
Age: 45
Name: Александр
Ооо... Меня тоже прет от этих альбомов. Спасибо.


Top
 Profile E-mail  
 
 
PostPosted: 23 Sep 2009 
А может смените мне статус?..
User avatar
Joined: 17 Jan 2008
Posts: 862
Lоcаtion: Пенза
Age: 41
Name: Денис
Да здоровская штука.... :true:


Top
 Profile  
 
 
PostPosted: 23 Sep 2009 
Хиппей (support team)
User avatar
Joined: 30 Jul 2007
Posts: 106427
Lоcаtion: Киев (Kyiv, UA)
Age: 45
Name: Andrey
Ой, лепота какая. Спасибо! :true:

_________________


Top
 Profile E-mail  
 
Display posts from previous:  Sort by  
Post new topic Reply to topic  [ 5 posts ] 

All times are UTC + 3 hours


Who is online

Users browsing this forum: No registered users and 1 guest


You cannot post new topics in this forum
You cannot reply to topics in this forum
You cannot edit your posts in this forum
You cannot delete your posts in this forum
You cannot post attachments in this forum

Search for:
Яндекс.Метрика
cron
Powered by phpBB © 2000, 2002, 2005, 2007 phpBB Group