\m/ 80's metal \m/

Информационно-аналитический форум "80 см пыли" (In Search We Trust) "У нас никто никуда не спешит"
Me For You - http://me-4u.com
It is currently 24 Sep 2018

All times are UTC + 3 hours

Spoiler
Chat - temporary registration for foreign users (please leave your application here)







Post new topic Reply to topic  [ 64 posts ]  Go to page Previous  1, 2, 3, 4  Next
Author Message
 
PostPosted: 13 Sep 2009 
А может смените мне статус?..
Joined: 12 Dec 2008
Posts: 974
Lоcаtion: BULGARIA
Age: 40
Name: DIMITЪR
Messenger (Ger) - Titanic suicide

Image

.

Genre:Heavy metal

1.Intro / On the run
2.Falcon age
3.Scared heart
4.Why are you tellin´ me lies
5.Dead end
6.Titanic suicide
7.Broken mirror
8.Demoney / The last bird song


Thank!!! :true:


Top
 Profile  
 
 
PostPosted: 21 Sep 2017 
Хиппей (support team)
User avatar
Joined: 30 Jul 2007
Posts: 106508
Lоcаtion: Киев (Kyiv, UA)
Age: 45
Name: Andrey
Если что, завтра в обед перезалью на импортные файлообменники.

_________________


Top
 Profile E-mail  
 
 
PostPosted: 21 Sep 2017 
Рарник и трушник
User avatar
Joined: 25 Dec 2009
Posts: 8064
Lоcаtion: Москва
Age: 53
Name: Виталий
Спасибо, Андрушко! :thanx:
Я ж тож реально не слышал этот дебют, хотя команду люблю. :pardon:


Top
 Profile  
 
 
PostPosted: 21 Sep 2017 
Хиппей (support team)
User avatar
Joined: 30 Jul 2007
Posts: 106508
Lоcаtion: Киев (Kyiv, UA)
Age: 45
Name: Andrey
Messenger - 1990 - Titanic Suicide [320]

mirror: Depos l Drop l Narod

_________________


Top
 Profile E-mail  
 
 
PostPosted: 21 Sep 2017 
Хиппей (support team)
User avatar
Joined: 30 Jul 2007
Posts: 106508
Lоcаtion: Киев (Kyiv, UA)
Age: 45
Name: Andrey


Сра-мо-та-ж :crazy: :pardon:

_________________


Top
 Profile E-mail  
 
 
PostPosted: 21 Sep 2017 
Хиппей (support team)
User avatar
Joined: 30 Jul 2007
Posts: 106508
Lоcаtion: Киев (Kyiv, UA)
Age: 45
Name: Andrey
Quote:
Страна: Германия Стиль: Heavy / Power Metal Новый альбом германской группы MESSENGER - "Starwolf Pt. 1: The Messengers" вышел , 6 сентября на Massacre Records. Гостевое участие в записи приняли вокалисты Ralf Scheepers и Jutta Weinhold а также гитарист Preacher, игравший в Running Wild. Кавер этой группы трек Port Royal, войшел в бонусы. Настоящий германский мелодичный металл с акцентом на гитарные мелодии. Придется по душе в первyю очередь поклонникам Running Wild. Да, собственно, это и похоже на Running Wild. космической тематики.. Siegfried Schüßler - Vocals (Nion, ex-Stormblade, ex-Priestess, ex-Chimaera, ex-Icon) Patrik Deckarm - Rhythm Guitars Frank Kettenhofen - Lead Guitars (ex-Stormblade) Benny Strauß - Bass (ex-Split Second) Markus Merl - Drums

https://www.last.fm/ru/music/Messenger/Titanic+Suicide

_________________


Top
 Profile E-mail  
 
 
PostPosted: 21 Sep 2017 
Хиппей (support team)
User avatar
Joined: 30 Jul 2007
Posts: 106508
Lоcаtion: Киев (Kyiv, UA)
Age: 45
Name: Andrey
а давай, грузи. посмотрим что там за Мессенджер

Тоскливый хэви под Хэлловин средней дискографичности :esel:

Действительно. Ещё несколько раз переслушал - мнение не поменялось :(
Унылый второсортный хэви с частичками павера :pardon:

4/10

_________________


Top
 Profile E-mail  
 
 
PostPosted: 21 Sep 2017 
Хиппей (support team)
User avatar
Joined: 30 Jul 2007
Posts: 106508
Lоcаtion: Киев (Kyiv, UA)
Age: 45
Name: Andrey
Ха, и ссылка от Вовки в Гугле сразу нашлась :arrow:

:arrow: http://strike4metal.blogspot.com/2015/0 ... -1990.html

_________________


Top
 Profile E-mail  
 
 
PostPosted: 21 Sep 2017 
Хиппей (support team)
User avatar
Joined: 30 Jul 2007
Posts: 106508
Lоcаtion: Киев (Kyiv, UA)
Age: 45
Name: Andrey
Кстати :arrow: viewtopic.php?f=186&t=10469 :kro:

зы. Пшол искать второй альбом группы в Гугле. Нашёл у нас же :pardon:

_________________


Top
 Profile E-mail  
 
 
PostPosted: 21 Sep 2017 
Хиппей (support team)
User avatar
Joined: 30 Jul 2007
Posts: 106508
Lоcаtion: Киев (Kyiv, UA)
Age: 45
Name: Andrey
О, а здесь музыка, в сравнении с дебютником, сразу же стала активной :lob: :lob: :lob:

_________________


Top
 Profile E-mail  
 
 
PostPosted: 21 Sep 2017 
Хиппей (support team)
User avatar
Joined: 30 Jul 2007
Posts: 106508
Lоcаtion: Киев (Kyiv, UA)
Age: 45
Name: Andrey
McKagan wrote:
Messenger (Ger) - Asylum X-T-C (1994)

Очень качественный Hard & Heavy под US Hair Metal style :meloman:

7/10


_________________


Top
 Profile E-mail  
 
 
PostPosted: 21 Sep 2017 
Хиппей (support team)
User avatar
Joined: 30 Jul 2007
Posts: 106508
Lоcаtion: Киев (Kyiv, UA)
Age: 45
Name: Andrey
Так понимаю, на остальных альбомах группа снова утяжелилась.
Скоро их тоже послушаю :kro:

_________________


Top
 Profile E-mail  
 
 
PostPosted: 22 Sep 2017 
Хиппей (support team)
User avatar
Joined: 30 Jul 2007
Posts: 106508
Lоcаtion: Киев (Kyiv, UA)
Age: 45
Name: Andrey
Обе темы по группе объединены в одну :pardon:

_________________


Top
 Profile E-mail  
 
 
PostPosted: 22 Sep 2017 
Хиппей (support team)
User avatar
Joined: 30 Jul 2007
Posts: 106508
Lоcаtion: Киев (Kyiv, UA)
Age: 45
Name: Andrey
Ну и постепенно сюда вся дискография этой неоднозначИТельной группы будет добавлена.

_________________


Top
 Profile E-mail  
 
 
PostPosted: 22 Sep 2017 
Хиппей (support team)
User avatar
Joined: 30 Jul 2007
Posts: 106508
Lоcаtion: Киев (Kyiv, UA)
Age: 45
Name: Andrey
Messenger (Ger) - Titanic suicide

Image

.

Genre:Heavy metal

1.Intro / On the run
2.Falcon age
3.Scared heart
4.Why are you tellin´ me lies
5.Dead end
6.Titanic suicide
7.Broken mirror
8.Demoney / The last bird song


Thank!!! :true:

Ха :crazy: Только что, меняю картинку в этом сообщении на более живую, заметил и ссылку на альбом в мп3 :kro:
Зы. так что машите чаше мышкой или пальцами :cow:

_________________


Top
 Profile E-mail  
 
 
PostPosted: 22 Sep 2017 
Хиппей (support team)
User avatar
Joined: 30 Jul 2007
Posts: 106508
Lоcаtion: Киев (Kyiv, UA)
Age: 45
Name: Andrey
Messenger - 2015 - Starwolf Pt.2 - Novastorm (Limited Edition)[flac]

Image

mirror: Depos l Narod l M-Cloud l Drop

Начал только слушать.
И понимаю... что группа заиграла здесь Speed Heavy Power :lob:

pics
Image

Image

Image

Image

Image

Image

Image

Image

Image

Image

Image

Image

Image

Image

Image

Image


log
Exact Audio Copy V1.1 from 23. June 2015

EAC extraction logfile from 4. December 2015, 12:21

Messenger / Starwolf Pt. 2: Novastorm

Used drive : ATAPI iHAS122 W Adapter: 2 ID: 0

Read mode : Secure
Utilize accurate stream : Yes
Defeat audio cache : Yes
Make use of C2 pointers : No

Read offset correction : 48
Overread into Lead-In and Lead-Out : No
Fill up missing offset samples with silence : Yes
Delete leading and trailing silent blocks : No
Null samples used in CRC calculations : Yes
Used interface : Installed external ASPI interface

Used output format : User Defined Encoder
Selected bitrate : 1024 kBit/s
Quality : High
Add ID3 tag : No
Command line compressor : C:\Program Files\FLAC\flac.exe
Additional command line options : -V -8 -T "Date=%year%" -T "Genre=%genre%" -T"COMMENT=Ripped by Ilijan" -8 -V %source%


TOC of the extracted CD

Track | Start | Length | Start sector | End sector
---------------------------------------------------------
1 | 0:00.00 | 5:00.41 | 0 | 22540
2 | 5:00.41 | 3:56.01 | 22541 | 40241
3 | 8:56.42 | 4:28.48 | 40242 | 60389
4 | 13:25.15 | 4:41.16 | 60390 | 81480
5 | 18:06.31 | 4:35.41 | 81481 | 102146
6 | 22:41.72 | 4:49.21 | 102147 | 123842
7 | 27:31.18 | 5:35.34 | 123843 | 149001
8 | 33:06.52 | 5:36.73 | 149002 | 174274
9 | 38:43.50 | 4:40.64 | 174275 | 195338
10 | 43:24.39 | 7:03.36 | 195339 | 227099
11 | 50:28.00 | 4:12.36 | 227100 | 246035
12 | 54:40.36 | 4:39.44 | 246036 | 267004


Range status and errors

Selected range

Filename D:\ilко\Messenger - Starwolf Pt. 2- Novastorm.wav

Peak level 96.6 %
Extraction speed 4.1 X
Range quality 100.0 %
Test CRC 4DA6278B
Copy CRC 4DA6278B
Copy OK

No errors occurred


AccurateRip summary

Track 1 not present in database
Track 2 not present in database
Track 3 not present in database
Track 4 not present in database
Track 5 not present in database
Track 6 not present in database
Track 7 not present in database
Track 8 not present in database
Track 9 not present in database
Track 10 not present in database
Track 11 not present in database
Track 12 not present in database

None of the tracks are present in the AccurateRip database

End of status report

---- CUETools DB Plugin V2.1.6

[CTDB TOCID: MTKJvnow5lk9esm7wtp4L0XLWOo-] disk not present in database
Submit result: MTKJvnow5lk9esm7wtp4L0XLWOo- has been uploaded


==== Log checksum A802E16FCAE3DA09A027831EF1704BF7ED2E48C7B1FC7DBA2A2C8A164CE0E456 ====

cue
REM GENRE "Power Metal"
REM DATE 2015
REM DISCID 9C0DE80C
REM COMMENT "ExactAudioCopy v1.1"
PERFORMER "Messenger"
TITLE "Starwolf Pt. 2: Novastorm"
FILE "Messenger - Starwolf Pt. 2- Novastorm.flac" WAVE
TRACK 01 AUDIO
TITLE "Sword Of The Stars"
PERFORMER "Messenger"
INDEX 01 00:00:00
TRACK 02 AUDIO
TITLE "Privateer's Hymn"
PERFORMER "Messenger"
INDEX 00 04:58:71
INDEX 01 05:00:41
TRACK 03 AUDIO
TITLE "Wings Of Destiny"
PERFORMER "Messenger"
INDEX 00 08:54:43
INDEX 01 08:56:42
TRACK 04 AUDIO
TITLE "Frozen"
PERFORMER "Messenger"
INDEX 00 13:23:49
INDEX 01 13:25:15
TRACK 05 AUDIO
TITLE "Novastorm"
PERFORMER "Messenger"
INDEX 00 18:05:04
INDEX 01 18:06:31
TRACK 06 AUDIO
TITLE "Pleasure Synth"
PERFORMER "Messenger"
INDEX 00 22:40:19
INDEX 01 22:41:72
TRACK 07 AUDIO
TITLE "Captain's Loot"
PERFORMER "Messenger"
INDEX 00 27:29:36
INDEX 01 27:31:18
TRACK 08 AUDIO
TITLE "Warrior's Ride"
PERFORMER "Messenger"
INDEX 00 33:05:00
INDEX 01 33:06:52
TRACK 09 AUDIO
TITLE "Wild Dolly"
PERFORMER "Messenger"
INDEX 00 38:41:69
INDEX 01 38:43:50
TRACK 10 AUDIO
TITLE "Fortress Of Freedom"
PERFORMER "Messenger"
INDEX 00 43:22:50
INDEX 01 43:24:39
TRACK 11 AUDIO
TITLE "Keep Your Dreams Alive (Bonus Track)"
PERFORMER "Messenger"
INDEX 00 50:26:12
INDEX 01 50:28:00
TRACK 12 AUDIO
TITLE "In Morgan We Trust (Bonus Track)"
PERFORMER "Messenger"
INDEX 00 54:38:66
INDEX 01 54:40:36

_________________


Top
 Profile E-mail  
 
 
PostPosted: 22 Sep 2017 
Хиппей (support team)
User avatar
Joined: 30 Jul 2007
Posts: 106508
Lоcаtion: Киев (Kyiv, UA)
Age: 45
Name: Andrey
Ага, точно. На этом альбоме группа играет современные версии таких легендарных коллективов, как Running Wild, Blind Guardian, Grave Digger, иногда Rage облегчённый и, соответственно, POwerWolf.
В общем, модный павер, по сути, но мне нравится =) :meloman: :meloman: :meloman:
Хитов очень много и они ни разу не сопливые :kro:

7/10

_________________


Top
 Profile E-mail  
 
 
PostPosted: 22 Sep 2017 
Хиппей (support team)
User avatar
Joined: 30 Jul 2007
Posts: 106508
Lоcаtion: Киев (Kyiv, UA)
Age: 45
Name: Andrey
Всё, забираю альбом в личный топ, оценку подымаю до 8 баллов, ибо реально крута и хитово и задорно (ой, прям как настоящий) весь альбом звучит :lob: :lob: :lob:

_________________


Top
 Profile E-mail  
 
 
PostPosted: 22 Sep 2017 
Я набрал 1000 сообщений!
Joined: 09 Jul 2008
Posts: 2386
Age: 45
Name: Сергей
дальше... ничего нету, ну хоть порожняк сыграет


Top
 Profile  
 
 
PostPosted: 23 Sep 2017 
Хиппей (support team)
User avatar
Joined: 30 Jul 2007
Posts: 106508
Lоcаtion: Киев (Kyiv, UA)
Age: 45
Name: Andrey
Messenger - 2013 - Starwolf - Pt.1 - The Messengers [flac]

Image

mirror: Depos l Narod l M-Cloud l Drop

pics
Image

Image

Image

Image

Image

Image

Image

Image

Image

Image

Image

Image


log
Exact Audio Copy V1.0 beta 3 from 29. August 2011

EAC extraction logfile from 28. October 2013, 14:35

Messenger / Starwolf - Pt. 1: The Messengers

Used drive : Optiarc DVD RW AD-5200A Adapter: 0 ID: 0

Read mode : Secure
Utilize accurate stream : Yes
Defeat audio cache : Yes
Make use of C2 pointers : No

Read offset correction : 48
Overread into Lead-In and Lead-Out : No
Fill up missing offset samples with silence : Yes
Delete leading and trailing silent blocks : No
Null samples used in CRC calculations : Yes
Used interface : Native Win32 interface for Win NT & 2000

Used output format : Internal WAV Routines
Sample format : 44.100 Hz; 16 Bit; Stereo


TOC of the extracted CD

Track | Start | Length | Start sector | End sector
---------------------------------------------------------
1 | 0:00.00 | 5:08.23 | 0 | 23122
2 | 5:08.23 | 5:28.31 | 23123 | 47753
3 | 10:36.54 | 4:27.58 | 47754 | 67836
4 | 15:04.37 | 5:04.69 | 67837 | 90705
5 | 20:09.31 | 4:58.07 | 90706 | 113062
6 | 25:07.38 | 5:19.65 | 113063 | 137052
7 | 30:27.28 | 5:16.33 | 137053 | 160785
8 | 35:43.61 | 4:57.24 | 160786 | 183084
9 | 40:41.10 | 6:27.05 | 183085 | 212114
10 | 47:08.15 | 4:16.52 | 212115 | 231366
11 | 51:24.67 | 5:54.69 | 231367 | 257985


Range status and errors

Selected range

Filename D:\Doc\Перечни\Temp\Messenger-2013 - Starwolf - Pt. 1- The Messengers.wav

Peak level 98.8 %
Extraction speed 4.1 X
Range quality 100.0 %
Test CRC E265205C
Copy CRC E265205C
Copy OK

No errors occurred


AccurateRip summary

Track 1 not present in database
Track 2 not present in database
Track 3 not present in database
Track 4 not present in database
Track 5 not present in database
Track 6 not present in database
Track 7 not present in database
Track 8 not present in database
Track 9 not present in database
Track 10 not present in database
Track 11 not present in database

None of the tracks are present in the AccurateRip database

End of status report

==== Log checksum 75ECC8007997268FF632A62D90ECD4DDA3D2045007C3CF43192D16B14288F389 ====

cue
REM ACCURATERIPID 0017448b-00ca26d0-850d6f0b
REM GENRE "Heavy metal"
REM DATE 2013
REM DISCID 850D6F0B
REM COMMENT "ExactAudioCopy v1.0b3"
PERFORMER "Messenger"
TITLE "Starwolf - Pt. 1: The Messengers"
REM DISCNUMBER 1
REM TOTALDISCS 1
FILE "Messenger-2013 - Starwolf - Pt. 1- The Messengers.flac" WAVE
TRACK 01 AUDIO
TITLE "Raiders Of Galaxy"
PERFORMER "Messenger"
ISRC DER371384501
INDEX 01 00:00:00
TRACK 02 AUDIO
TITLE "The Spectre"
PERFORMER "Messenger"
ISRC DER371384502
INDEX 01 05:08:23
TRACK 03 AUDIO
TITLE "Salvation (feat. Ralf Scheepers)"
PERFORMER "Messenger"
ISRC DER371384503
INDEX 01 10:36:54
TRACK 04 AUDIO
TITLE "Pirates Of Space"
PERFORMER "Messenger"
ISRC DER371384504
INDEX 01 15:04:37
TRACK 05 AUDIO
TITLE "Chosen One"
PERFORMER "Messenger"
ISRC DER371384506
INDEX 01 20:09:31
TRACK 06 AUDIO
TITLE "Earth, Water And Power"
PERFORMER "Messenger"
ISRC DER371384507
INDEX 01 25:07:38
TRACK 07 AUDIO
TITLE "Reign Of The Righteous"
PERFORMER "Messenger"
ISRC DER371384508
INDEX 01 30:27:28
TRACK 08 AUDIO
TITLE "Thousand Suns Of Eternity"
PERFORMER "Messenger"
ISRC DER371384509
INDEX 01 35:43:61
TRACK 09 AUDIO
TITLE "Starwolf"
PERFORMER "Messenger"
ISRC DER371384510
INDEX 01 40:41:10
TRACK 10 AUDIO
TITLE "The Path Of Science"
PERFORMER "Messenger"
ISRC DER371384512
INDEX 01 47:08:15
TRACK 11 AUDIO
TITLE "Born To Face The Wind"
PERFORMER "Messenger"
ISRC DER371384513
INDEX 01 51:24:67

_________________


Top
 Profile E-mail  
 
 
PostPosted: 23 Sep 2017 
Хиппей (support team)
User avatar
Joined: 30 Jul 2007
Posts: 106508
Lоcаtion: Киев (Kyiv, UA)
Age: 45
Name: Andrey
Чуть слабее альбом 13 года, но тоже нравится и тоже забираю в топы :kro:

7/10

_________________


Top
 Profile E-mail  
 
Display posts from previous:  Sort by  
Post new topic Reply to topic  [ 64 posts ]  Go to page Previous  1, 2, 3, 4  Next

All times are UTC + 3 hours


Who is online

Users browsing this forum: No registered users and 3 guests


You cannot post new topics in this forum
You cannot reply to topics in this forum
You cannot edit your posts in this forum
You cannot delete your posts in this forum
You cannot post attachments in this forum

Search for:
Яндекс.Метрика
Powered by phpBB © 2000, 2002, 2005, 2007 phpBB Group