\m/ 80's metal \m/

Информационно-аналитический форум "80 см пыли" (In Search We Trust) "У нас никто никуда не спешит"
Me For You - http://me-4u.com
It is currently 19 Nov 2018

All times are UTC + 3 hours

Spoiler
Chat - temporary registration for foreign users (please leave your application here)







Post new topic Reply to topic  [ 3 posts ] 
Author Message
 
PostPosted: 03 Sep 2009 
Генеральный thrasher
User avatar
Joined: 03 Oct 2008
Posts: 3506
Lоcаtion: Ханты-Мансийский АО
Age: 43
Name: Сергей
Image

Year: 2008
Style: Epic Heavy/Power/Thrash Metal
Country: U.S.A.
Audio: flac+cue+log
Size: 452 Mb

Image

Tracklist:
1. Tomb of the Serpent King / Butchers of the Sea 09:02
2. Frost and Fire 06:02
3. Tree of Life 08:00
4. Blood Eagle 06:11
5. Voyager 09:31
6. Eye of the Storm 04:40
7. Return of the Serpent King 08:04
8. Conquest 04:37
9. Totentanz (The Dance of Death) 07:57

Image


Line-up:
Cory Christner - Drums
Harvey Patrick - Bass, Vocals
Mark Shelton - Vocals, Guitars, Keyboards,Synthesizers & Cathedral Organ

Log
Exact Audio Copy V0.99 prebeta 4 from 23. January 2008

Отчёт EAC об извлечении, выполненном 1. сентября 2009, 9:02

MANILLA ROAD / Voyager

Дисковод: ATAPI DVD A DH20A4P Adapter: 0 ID: 1

Режим чтения : Достоверность
Использование точного потока : Да
Отключение кэша аудио : Да
Использование указателей C2 : Нет

Коррекция смещения при чтении : 6
Способность читать области Lead-in и Lead-out : Нет
Заполнение пропущенных сэмплов тишиной : Да
Удаление блоков с тишиной в начале и конце : Нет
При вычислениях CRC использовались нулевые сэмплы : Нет
Интерфейс : Встроенный Win32-интерфейс для Win NT/2000

Выходной формат : Пользовательский кодировщик
Выбранный битрейт : 768 kBit/s
Качество : Высокий
Добавление ID3-тэга : Нет
Утилита сжатия : C:\Program Files\Exact Audio Copy\FLAC\FLAC.EXE
Дополнительные параметры : -6 -V -T "ARTIST=%a" -T "TITLE=%t" -T "ALBUM=%g" -T "DATE=%y" -T "TRACKNUMBER=%n" -T "GENRE=%m" -T "COMMENT=%e" %s -o %d


TOC извлечённого CD

Трек | Старт | Длительность | Начальный сектор | Конечный сектор
---------------------------------------------------------------------
1 | 0:00.00 | 9:01.74 | 0 | 40648
2 | 9:01.74 | 6:01.38 | 40649 | 67761
3 | 15:03.37 | 8:00.05 | 67762 | 103766
4 | 23:03.42 | 6:10.34 | 103767 | 131550
5 | 29:14.01 | 9:30.51 | 131551 | 174351
6 | 38:44.52 | 4:39.56 | 174352 | 195332
7 | 43:24.33 | 8:03.55 | 195333 | 231612
8 | 51:28.13 | 4:37.44 | 231613 | 252431
9 | 56:05.57 | 7:56.29 | 252432 | 288160


Характеристики диапазона извлечения и сообщения об ошибках

Выбранный диапазон

Имя файла D:\Lossless Music\MANILLA ROAD - Voyager.wav

Пиковый уровень 100.0 %
Качество диапазона 100.0 %
CRC копии DED3CC18
Копирование... OK

Ошибок не произошло


AccurateRip: сводка

Трек 1 точное извлечение (доверие 1) [BBC9CB1A]
Трек 2 точное извлечение (доверие 1) [77F3D185]
Трек 3 точное извлечение (доверие 1) [D89415E3]
Трек 4 точное извлечение (доверие 1) [17094FA9]
Трек 5 точное извлечение (доверие 1) [4EB4D14C]
Трек 6 точное извлечение (доверие 1) [DE775987]
Трек 7 точное извлечение (доверие 1) [3A02682D]
Трек 8 точное извлечение (доверие 1) [92B693CE]
Трек 9 точное извлечение (доверие 1) [0488B61D]

Все треки извлечены точно

Конец отчёта


Cue
REM GENRE "Heavy Metal"
REM DATE 2008
REM DISCID 7A0F0209
REM COMMENT "ExactAudioCopy v0.99pb4"
PERFORMER "MANILLA ROAD"
TITLE "Voyager"
FILE "MANILLA ROAD - Voyager.flac" WAVE
TRACK 01 AUDIO
TITLE "Tomb Of The Serpent King - Butchers Of The Sea"
PERFORMER "MANILLA ROAD"
INDEX 01 00:00:00
TRACK 02 AUDIO
TITLE "Frost And Fire"
PERFORMER "MANILLA ROAD"
INDEX 01 09:01:74
TRACK 03 AUDIO
TITLE "Tree Of Life"
PERFORMER "MANILLA ROAD"
INDEX 01 15:03:37
TRACK 04 AUDIO
TITLE "Blood Eagle"
PERFORMER "MANILLA ROAD"
INDEX 01 23:03:42
TRACK 05 AUDIO
TITLE "Voyager"
PERFORMER "MANILLA ROAD"
INDEX 01 29:14:01
TRACK 06 AUDIO
TITLE "Eye Of The Storm"
PERFORMER "MANILLA ROAD"
INDEX 01 38:44:52
TRACK 07 AUDIO
TITLE "Return Of The Serpent King"
PERFORMER "MANILLA ROAD"
INDEX 01 43:24:33
TRACK 08 AUDIO
TITLE "Conquest"
PERFORMER "MANILLA ROAD"
INDEX 01 51:28:13
TRACK 09 AUDIO
TITLE "Totentanz (The Dance Of Death)"
PERFORMER "MANILLA ROAD"
INDEX 01 56:05:57



Megaupload


Top
 Profile  
 
 
PostPosted: 03 Sep 2009 
HAMMER
User avatar
Joined: 16 May 2009
Posts: 5453
Lоcаtion: Тверь
Age: 45
Name: Александр
:thanx:


Top
 Profile E-mail  
 
 
PostPosted: 03 Sep 2009 
Хиппей (support team)
User avatar
Joined: 30 Jul 2007
Posts: 108153
Lоcаtion: Киев (Kyiv, UA)
Age: 45
Name: Andrey
:thanx:

_________________


Top
 Profile E-mail  
 
Display posts from previous:  Sort by  
Post new topic Reply to topic  [ 3 posts ] 

All times are UTC + 3 hours


Who is online

Users browsing this forum: No registered users and 5 guests


You cannot post new topics in this forum
You cannot reply to topics in this forum
You cannot edit your posts in this forum
You cannot delete your posts in this forum
You cannot post attachments in this forum

Search for:
Яндекс.Метрика
Powered by phpBB © 2000, 2002, 2005, 2007 phpBB Group